conanlcg
超级版主

[2011] [欧美] [剧情] [BD-1080P] 浮沉洛杉矶/欲海浮沉荷里活 Going.Down.in.LA.LA.Land.2011.1080p.BluRay.x264-HANDJOB 8.36GB

-->

帖子完整标题:浮沉洛杉矶/欲海浮沉荷里活 Going.Down.in.LA.LA.Land.2011.1080p.BluRay.x264-HANDJOB 8.36GB




◎译  名 浮沉洛杉矶 / 欲海浮沉荷里活(港)
◎片  名 Going Down in LA-LA Land
◎年  代 2011
◎产  地 美国
◎类  别 剧情 / 喜剧 / 爱情 / 同性
◎语  言 英语
◎上映日期 2012-04-20(美国)
◎IMDb评分 6.2/10 from 2200 users
◎IMDb链接 http://www.imdb.com/title/tt1599296
◎豆瓣评分 6.5/10 from 2278 users
◎豆瓣链接 https://movie.douban.com/subject/5156523/
◎片  长 104分钟
◎导  演 卡斯帕·安德瑞斯 Casper Andreas
◎编  剧 卡斯帕·安德瑞斯 Casper Andreas
◎主  演 Matthew Ludwinski
      Allison Lane
      Michael Medico
      Jesse Archer


◎标  签 美国 | 同性 | 同志 | 爱情 | 喜剧 | Gay | 美国电影 | 沉浮洛杉矶

◎简  介

  梦想成为明星的亚当(Matthew Ludwinski 饰)来到洛杉矶,因人生路不熟在制作公司做兼职,很快花光周身积蓄。山穷水尽的他遇到淫媒问价,战战兢兢的踏上了皮肉生涯路,不但要满足好色监制,更被吸粉摄影师哄骗上手。一次亚当到比佛利山的豪宅为深柜大明星约翰(Michael Medico 饰)提供上门服务,两人情不自禁的爱上对方。约翰以请助手为名“包养”了亚当。甘愿被爱奴役的亚当,一步步迷失在五光十色的花花世界,载沉载浮,如痴如梦......
  电影改编自同名半自传小说,以主角亲身经历揭开好莱坞的风光面纱,曝光背后各种光怪陆离的潜规则。导演卡斯帕·安德瑞斯拍有《爱与分手间》、《同志音乐剧》等叫好叫座的同志电影,是位有商业价值和艺术水准的导演。
Video
ID : 2
Format : AVC
Format/Info : Advanced Video Codec
Format profile : [email protected]
Format settings : CABAC / 4 Ref Frames
Format settings, CABAC : Yes
Format settings, Reference frames : 4 frames
Codec ID : V_MPEG4/ISO/AVC
Duration : 1 h 47 min
Bit rate : 10.9 Mb/s
Width : 1 918 pixels
Height : 1 038 pixels
Display aspect ratio : 1.85:1
Frame rate mode : Constant
Frame rate : 23.976 (24000/1001) FPS
Color space : YUV
Chroma subsampling : 4:2:0
Bit depth : 8 bits
Scan type : Progressive
Bits/(Pixel*Frame) : 0.229
Stream size : 8.21 GiB (98%)
Writing library : x264 core 157 r2935 545de2f
Encoding settings : cabac=1 / ref=4 / deblock=1:-3:-3 / analyse=0x3:0x133 / me=umh / subme=10 / psy=1 / psy_rd=1.00:0.00 / mixed_ref=1 / me_range=32 / chroma_me=1 / trellis=2 / 8x8dct=1 / cqm=0 / deadzone=21,11 / fast_pskip=0 / chroma_qp_offset=-2 / threads=32 / lookahead_threads=8 / sliced_threads=0 / nr=0 / decimate=0 / interlaced=0 / bluray_compat=0 / constrained_intra=0 / bframes=16 / b_pyramid=2 / b_adapt=2 / b_bias=0 / direct=3 / weightb=1 / open_gop=0 / weightp=2 / keyint=240 / keyint_min=24 / scenecut=40 / intra_refresh=0 / rc_lookahead=60 / rc=crf / mbtree=0 / crf=14.5 / qcomp=0.60 / qpmin=0 / qpmax=69 / qpstep=4 / vbv_maxrate=62500 / vbv_bufsize=78125 / crf_max=0.0 / nal_hrd=none / filler=0 / ip_ratio=1.40 / pb_ratio=1.30 / aq=2:1.00
Default : Yes
Forced : No
Color range : Limited
Color primaries : BT.709
Transfer characteristics : BT.709
Matrix coefficients : BT.709

Audio
ID : 1
Format : AC-3
Format/Info : Audio Coding 3
Commercial name : Dolby Digital
Codec ID : A_AC3
Duration : 1 h 47 min
Bit rate mode : Constant
Bit rate : 192 kb/s
Channel(s) : 2 channels
Channel layout : L R
Sampling rate : 48.0 kHz
Frame rate : 31.250 FPS (1536 SPF)
Bit depth : 16 bits
Compression mode : Lossy
Stream size : 148 MiB (2%)
Language : English
Service kind : Complete Main
Default : Yes
Forced : No

Menu
00:00:00.000 : en:Chapter 01
00:06:41.595 : en:Chapter 02
00:13:58.644 : en:Chapter 03
00:23:44.893 : en:Chapter 04
00:33:49.329 : en:Chapter 05
00:40:46.524 : en:Chapter 06
00:50:09.874 : en:Chapter 07
00:58:40.459 : en:Chapter 08
01:08:55.698 : en:Chapter 09
01:15:17.438 : en:Chapter 10
01:25:19.997 : en:Chapter 11
01:34:44.182 : en:Chapter 12





1 个附件 售价 大小 下载 时间

Going.Down.in.LA.LA.Land.2011.1080p.BluRay.x264-HANDJOB.torrent 0 金币 42.33K 735 次 1月前

#1楼
发帖时间:2019-08-18 02:59:03   |   回复数:2
911degrees
隐世仙人♂
非常感谢,谢谢分享
1月前 #2楼
liyouchai
隐世仙人♂
谢谢楼主分享资源
1月前 #3楼
游客组