conanlcg
超级版主

[2011] [欧美] [其他] [BD-1080P] 欢乐合唱团:3D演唱会 Glee.The.Concert.Movie.2011.1080p.BluRay.x264.DTS-FGT 6.11GB

-->

帖子完整标题:欢乐合唱团:3D演唱会 Glee.The.Concert.Movie.2011.1080p.BluRay.x264.DTS-FGT 6.11GB




◎译  名 欢乐合唱团:3D演唱会
◎片  名 Glee: The 3D Concert Movie
◎年  代 2011
◎产  地 美国
◎类  别 纪录片 / 音乐 / 歌舞
◎语  言 英语
◎上映日期 2011-08-12
◎IMDb评分 5.4/10 from 5464 users
◎IMDb链接 http://www.imdb.com/title/tt1922612
◎豆瓣评分 8.2/10 from 1853 users
◎豆瓣链接 https://movie.douban.com/subject/6721948/
◎片  长 84分钟
◎导  演 Kevin Tancharoen
◎主  演 柯瑞·蒙特斯 Cory Monteith
      迪安娜·阿格隆 Dianna Agron
      丽亚·米雪儿 Lea Michele
      考德·欧威尔斯特利特 Chord Overstreet
      达伦·克里斯 Darren Criss
      克里斯·柯尔弗 Chris Colfer
      凯文·麦克哈尔 Kevin McHale
      海瑟·莫里斯 Heather Morris
      小哈里·沙姆 Harry Shum Jr.
      娜雅·里维拉 Naya Rivera
      马克·塞灵 Mark Salling
      艾什丽·芬克 Ashley Fink
      安伯·莱利 Amber Riley
      珍娜·乌什克维兹 Jenna Ushkowitz


◎标  签 GLEE | 美国 | 演唱会 | 音乐 | 歌舞 | Live | 纪录片 | 2011

◎简  介

  A concert documentary shot during the Glee Live! In Concert! summer 2011 tour.
Video
ID : 1
Format : AVC
Format/Info : Advanced Video Codec
Format profile : [email protected]
Format settings, CABAC : Yes
Format settings, ReFrames : 4 frames
Codec ID : V_MPEG4/ISO/AVC
Duration : 1h 23mn
Bit rate : 8 910 Kbps
Width : 1 920 pixels
Height : 1 080 pixels
Display aspect ratio : 16:9
Frame rate mode : Constant
Frame rate : 23.976 (24000/1001) fps
Color space : YUV
Chroma subsampling : 4:2:0
Bit depth : 8 bits
Scan type : Progressive
Bits/(Pixel*Frame) : 0.179
Stream size : 5.10 GiB (84%)
Writing library : x264 core 122 r2184 5c85e0a
Encoding settings : cabac=1 / ref=4 / deblock=1:-1:-1 / analyse=0x3:0x133 / me=umh / subme=7 / psy=1 / psy_rd=1.00:0.15 / mixed_ref=1 / me_range=16 / chroma_me=1 / trellis=1 / 8x8dct=1 / cqm=0 / deadzone=21,11 / fast_pskip=0 / chroma_qp_offset=-3 / threads=9 / sliced_threads=0 / nr=0 / decimate=1 / interlaced=0 / bluray_compat=0 / constrained_intra=0 / bframes=3 / b_pyramid=2 / b_adapt=1 / b_bias=0 / direct=1 / weightb=1 / open_gop=0 / weightp=2 / keyint=250 / keyint_min=23 / scenecut=40 / intra_refresh=0 / rc_lookahead=40 / rc=2pass / mbtree=1 / bitrate=8910 / ratetol=1.0 / qcomp=0.60 / qpmin=0 / qpmax=69 / qpstep=4 / cplxblur=20.0 / qblur=0.5 / ip_ratio=1.40 / aq=1:1.00
Default : Yes
Forced : No

Audio
ID : 2
Format : DTS
Format/Info : Digital Theater Systems
Mode : 16
Format settings, Endianness : Big
Codec ID : A_DTS
Duration : 1h 23mn
Bit rate mode : Constant
Bit rate : 1 509 Kbps
Channel(s) : 6 channels
Channel positions : Front: L C R, Side: L R, LFE
Sampling rate : 48.0 KHz
Frame rate : 93.750 fps (512 spf)
Bit depth : 24 bits
Compression mode : Lossy
Stream size : 906 MiB (14%)
Language : English
Default : No
Forced : No





1 个附件 售价 大小 下载 时间

Glee.The.Concert.Movie.2011.1080p.BluRay.x264.DTS-FGT.torrent 0 金币 61.68K 483 次 1月前

#1楼
发帖时间:2019-08-17 11:26:57   |   回复数:2
liyouchai
隐世仙人♂
谢谢楼主分享资源
1月前 #2楼
911degrees
隐世仙人♂
非常感谢,谢谢分享
1月前 #3楼
游客组