conanlcg
超级版主

[2011] [欧美] [其他] [BD-1080P] 游猎: 非洲 Safari.2011.1080p.BluRay.x264-SONiDO 4.37GB

-->

帖子完整标题:游猎: 非洲 Safari.2011.1080p.BluRay.x264-SONiDO 4.37GB




◎译  名 游猎: 非洲
◎片  名 Safari: Africa
◎年  代 2011
◎产  地 美国
◎类  别 纪录片 / 冒险
◎语  言 英语
◎上映日期 2011-01(美国)
◎IMDb评分 7.0/10 from 83 users
◎IMDb链接 http://www.imdb.com/title/tt1869235
◎豆瓣评分 0/10 from 0 users
◎豆瓣链接 https://movie.douban.com/subject/33413573/
◎片  长 88分钟
◎导  演 David Keane
◎主  演 Hunter Ellis


◎简  介

  Featuring jaw-dropping HD/3D cinematography, stirring original music, and Africa's original rock star animals, Emmy Award-winning host Hunter Ellis takes viewers on an unforgettable safari that puts them up-close and personal with the wonders of Africa. With Hunter as your very own personal safari guide, you will run with a herd of graceful gazelles, travel in a hot air balloon to soar with high-flying birds, cross the wide-open plains in an elusive hunt to track down the nearly extinct African black rhino, and scramble up a steep mountain in the rain to meet a pack of gorillas in the mist.
Video
ID : 1
Format : AVC
Format/Info : Advanced Video Codec
Format profile : [email protected]
Format settings, CABAC : Yes
Format settings, ReFrames : 4 frames
Codec ID : V_MPEG4/ISO/AVC
Duration : 1h 1mn
Bit rate : 8 649 Kbps
Width : 1 920 pixels
Height : 1 080 pixels
Display aspect ratio : 16:9
Frame rate mode : Constant
Frame rate : 23.976 (24000/1001) fps
Original frame rate : 23.976 (23976/1000) fps
Color space : YUV
Chroma subsampling : 4:2:0
Bit depth : 8 bits
Scan type : Progressive
Bits/(Pixel*Frame) : 0.174
Stream size : 3.63 GiB (83%)
Writing library : x264 core 120 r2120 0c7dab9
Encoding settings : cabac=1 / ref=4 / deblock=1:0:0 / analyse=0x3:0x133 / me=umh / subme=7 / psy=1 / psy_rd=1.00:0.00 / mixed_ref=1 / me_range=16 / chroma_me=1 / trellis=1 / 8x8dct=1 / cqm=0 / deadzone=21,11 / fast_pskip=0 / chroma_qp_offset=-2 / threads=12 / sliced_threads=0 / nr=0 / decimate=1 / interlaced=0 / bluray_compat=0 / constrained_intra=0 / bframes=3 / b_pyramid=2 / b_adapt=2 / b_bias=0 / direct=3 / weightb=1 / open_gop=0 / weightp=2 / keyint=250 / keyint_min=23 / scenecut=40 / intra_refresh=0 / rc_lookahead=50 / rc=2pass / mbtree=1 / bitrate=8649 / ratetol=1.0 / qcomp=0.60 / qpmin=0 / qpmax=69 / qpstep=4 / cplxblur=20.0 / qblur=0.5 / ip_ratio=1.40 / aq=1:1.00
Language : English
Default : Yes
Forced : No

Audio
ID : 2
Format : DTS
Format/Info : Digital Theater Systems
Mode : 16
Format settings, Endianness : Big
Codec ID : A_DTS
Duration : 1h 1mn
Bit rate mode : Constant
Bit rate : 1 509 Kbps
Channel(s) : 6 channels
Channel positions : Front: L C R, Side: L R, LFE
Sampling rate : 48.0 KHz
Frame rate : 93.750 fps (512 spf)
Bit depth : 24 bits
Compression mode : Lossy
Stream size : 664 MiB (15%)
Language : English
Default : Yes
Forced : No





1 个附件 售价 大小 下载 时间

Safari.2011.1080p.BluRay.x264-SONiDO.torrent 0 金币 87.88K 245 次 1月前

#1楼
发帖时间:2019-08-17 11:10:46   |   回复数:2
liyouchai
隐世仙人♂
谢谢楼主分享资源
1月前 #2楼
911degrees
隐世仙人♂
非常感谢,谢谢分享
1月前 #3楼
游客组