conanlcg
超级版主

[2018] [其他] [剧情] [WEB-1080P] 失控 Driven.2018.1080p.AMZN.WEBRip.DDP5.1.x264-NTG 7.19GB

-->

帖子完整标题:失控 Driven.2018.1080p.AMZN.WEBRip.DDP5.1.x264-NTG 7.19GB




◎译  名 失控
◎片  名 Driven
◎年  代 2018
◎产  地 波多黎各 / 英国 / 美国
◎类  别 剧情 / 惊悚 / 传记
◎语  言 英语
◎上映日期 2018-09-08(威尼斯电影节) / 2019-08-16(美国)
◎IMDb评分 6.1/10 from 160 users
◎IMDb链接 http://www.imdb.com/title/tt5592796
◎豆瓣评分 0/10 from 0 users
◎豆瓣链接 https://movie.douban.com/subject/27033207/
◎片  长 108分钟
◎导  演 尼克·哈姆 Nick Hamm
◎编  剧 Colin Bateman
◎主  演 李·佩斯 Lee Pace
      杰森·苏戴奇斯 Jason Sudeikis
      朱迪·格雷尔 Judy Greer
      寇瑞·斯托尔 Corey Stoll
      艾琳·莫里亚蒂 Erin Moriarty
      贾斯汀·巴萨 Justin Bartha
      迈克尔·库立兹 Michael Cudlitz
      塔拉·萨莫斯 Tara Summers
      伊多·戈德堡 Iddo Goldberg
      冈本玉二 Yuji Okumoto
      阿瑟·迈尔斯·法里卡 Asher Miles Fallica
      艾梅柏·里维拉 Amber Rivera
      布赖恩·泰斯特 Brian Tester
      杰弗里·霍尔斯曼 Jeffrey Holsman
      奥马尔·克鲁兹·索托 Omar Cruz Soto
      Isabel Arraiza
      Tyler Crumley
      Luis O. Rosado


◎标  签 李佩斯 | 传记 | LeePace | 美国 | 惊悚 | 2018 | 电影 | TimothyOlyphant

◎简  介

  李·佩斯出演美国传奇汽车公司德劳瑞恩的创始人——天才汽车设计师约翰·德劳瑞恩,影片设定在1980年代,德劳瑞恩创建还没几年,正在崛起,聚焦约翰和苏戴奇斯饰演的Jim Hoffman的关系。Hoffman看似有趣迷人,其实他是一名前诈骗犯,现在为FBI工作,他来约翰这里当卧底,想要控告其贩毒。两人建立的一段有趣的bromance也很快急转直下,行差踏错。
Video
ID : 1
Format : AVC
Format/Info : Advanced Video Codec
Format profile : [email protected]
Format settings : CABAC / 4 Ref Frames
Format settings, CABAC : Yes
Format settings, Reference frames : 4 frames
Codec ID : V_MPEG4/ISO/AVC
Duration : 1 h 53 min
Bit rate mode : Constant
Bit rate : 8 399 kb/s
Nominal bit rate : 10 000 kb/s
Width : 1 920 pixels
Height : 800 pixels
Display aspect ratio : 2.40:1
Frame rate mode : Constant
Frame rate : 23.976 (24000/1001) FPS
Color space : YUV
Chroma subsampling : 4:2:0
Bit depth : 8 bits
Scan type : Progressive
Bits/(Pixel*Frame) : 0.228
Stream size : 6.68 GiB (93%)
Default : Yes
Forced : No
Color range : Limited
Color primaries : BT.709
Transfer characteristics : BT.709
Matrix coefficients : BT.709

Audio
ID : 2
Format : E-AC-3
Format/Info : Enhanced AC-3
Commercial name : Dolby Digital Plus
Codec ID : A_EAC3
Duration : 1 h 53 min
Bit rate mode : Constant
Bit rate : 640 kb/s
Channel(s) : 6 channels
Channel layout : L R C LFE Ls Rs
Sampling rate : 48.0 kHz
Frame rate : 31.250 FPS (1536 SPF)
Compression mode : Lossy
Stream size : 521 MiB (7%)
Language : English
Service kind : Complete Main
Default : Yes
Forced : No

Text #1
ID : 3
Format : UTF-8
Codec ID : S_TEXT/UTF8
Codec ID/Info : UTF-8 Plain Text
Duration : 1 h 48 min
Bit rate : 85 b/s
Count of elements : 2119
Stream size : 68.2 KiB (0%)
Language : English
Default : No
Forced : No

Text #2
ID : 4
Format : UTF-8
Codec ID : S_TEXT/UTF8
Codec ID/Info : UTF-8 Plain Text
Duration : 1 h 53 min
Bit rate : 86 b/s
Count of elements : 2356
Stream size : 72.0 KiB (0%)
Title : SDH
Language : English
Default : No
Forced : No





1 个附件 售价 大小 下载 时间

Driven.2018.1080p.AMZN.WEBRip.DDP5.1.x264-NTG.torrent 0 金币 36.49K 252 次 1月前

#1楼
发帖时间:2019-08-17 09:35:44   |   回复数:2
liyouchai
隐世仙人♂
谢谢楼主分享资源
1月前 #2楼
911degrees
隐世仙人♂
非常感谢,谢谢分享
1月前 #3楼
游客组