conanlcg
超级版主

[更 早] [日本] [动作] [BD-1080P] 哥斯拉之世纪必杀阵 Godzilla.Vs.Destoroyah.1995.1080p.BluRay.x264-SADPANDA 8.75GB

-->

帖子完整标题:哥斯拉之世纪必杀阵 Godzilla.Vs.Destoroyah.1995.1080p.BluRay.x264-SADPANDA 8.75GB




◎译  名 哥斯拉之世纪必杀阵 / Godzilla vs. Destroyer / 恐龙帝国
◎片  名 ゴジラvsデストロイア
◎年  代 1995
◎产  地 日本
◎类  别 动作 / 科幻 / 恐怖
◎语  言 日语
◎上映日期 1995-12-09
◎IMDb评分 7.0/10 from 4820 users
◎IMDb链接 http://www.imdb.com/title/tt0113187
◎豆瓣评分 7.7/10 from 394 users
◎豆瓣链接 https://movie.douban.com/subject/2067449/
◎片  长 103 分钟
◎导  演 大河原孝夫
◎编  剧 大森一樹
◎主  演 辰巳琢郎
      石野陽子
      林泰文
      河内桃子
      小高恵美


◎标  签 哥斯拉 | 日本 | 科幻 | 特摄 | 哥斯拉之世纪必杀阵 | 日本电影 | 好多哥斯拉的电影都是小时侯看的 | 电影

◎简  介

  一个全身闪红光的哥斯拉在香港登陆,并把港岛和九龙的繁荣商业区破坏後离去。及後东京海底队道亦因为隧道机械主轴溶化不停发生事故,原来哥斯拉身上的冷却系统已破坏,令牠体内核子分裂快速活性化,并变成一座懂得步行的核子厂。同时东京水族馆发生谜一样的事件—水族馆内的鱼被离奇杀害,经研究後发现是一些生活在二亿多年前的地层生物—狄斯亚所造成。在临海副都心,自卫队派出冷冻战车迎战不明生物—狄斯亚及哥斯拉。此时哥斯拉的体温最终到达一千二百度,并可能引发全人类灭亡的核爆……

◎获奖情况

  第19届日本电影学院奖(1996)
  最佳录音(提名) 宫内一男
  最佳剪辑(提名) 长田千鹤子
Video
ID : 5
Format : AVC
Format/Info : Advanced Video Codec
Format profile : [email protected]
Format settings : CABAC / 4 Ref Frames
Format settings, CABAC : Yes
Format settings, Reference frames : 4 frames
Codec ID : V_MPEG4/ISO/AVC
Duration : 1 h 42 min
Bit rate : 9 146 kb/s
Width : 1 920 pixels
Height : 1 040 pixels
Display aspect ratio : 1.85:1
Frame rate mode : Constant
Frame rate : 23.976 (24000/1001) FPS
Color space : YUV
Chroma subsampling : 4:2:0
Bit depth : 8 bits
Scan type : Progressive
Bits/(Pixel*Frame) : 0.191
Stream size : 6.40 GiB (73%)
Writing library : x264 core 142 r2431 ac76440
Encoding settings : cabac=1 / ref=4 / deblock=1:0:0 / analyse=0x3:0x133 / me=umh / subme=8 / psy=1 / psy_rd=1.00:0.00 / mixed_ref=1 / me_range=16 / chroma_me=1 / trellis=1 / 8x8dct=1 / cqm=0 / deadzone=21,11 / fast_pskip=0 / chroma_qp_offset=-2 / threads=18 / lookahead_threads=3 / sliced_threads=0 / nr=0 / decimate=1 / interlaced=0 / bluray_compat=0 / constrained_intra=0 / bframes=3 / b_pyramid=2 / b_adapt=1 / b_bias=0 / direct=1 / weightb=1 / open_gop=0 / weightp=2 / keyint=250 / keyint_min=23 / scenecut=40 / intra_refresh=0 / rc_lookahead=40 / rc=2pass / mbtree=1 / bitrate=9146 / ratetol=1.0 / qcomp=0.60 / qpmin=0 / qpmax=69 / qpstep=4 / cplxblur=20.0 / qblur=0.5 / ip_ratio=1.40 / aq=1:1.00
Language : English
Default : Yes
Forced : No

Audio #1
ID : 1
Format : DTS
Format/Info : Digital Theater Systems
Codec ID : A_DTS
Duration : 1 h 42 min
Bit rate mode : Constant
Bit rate : 1 509 kb/s
Channel(s) : 2 channels
Channel layout : L R
Sampling rate : 48.0 kHz
Frame rate : 93.750 FPS (512 SPF)
Bit depth : 24 bits
Compression mode : Lossy
Stream size : 1.08 GiB (12%)
Title : Japanese
Language : Japanese
Default : No
Forced : No

Audio #2
ID : 2
Format : DTS
Format/Info : Digital Theater Systems
Codec ID : A_DTS
Duration : 1 h 42 min
Bit rate mode : Constant
Bit rate : 1 509 kb/s
Channel(s) : 2 channels
Channel layout : L R
Sampling rate : 48.0 kHz
Frame rate : 93.750 FPS (512 SPF)
Bit depth : 24 bits
Compression mode : Lossy
Stream size : 1.08 GiB (12%)
Title : English
Language : English
Default : Yes
Forced : No

Text #1
ID : 3
Format : UTF-8
Codec ID : S_TEXT/UTF8
Codec ID/Info : UTF-8 Plain Text
Title : English
Language : English
Default : No
Forced : No

Text #2
ID : 4
Format : UTF-8
Codec ID : S_TEXT/UTF8
Codec ID/Info : UTF-8 Plain Text
Title : English Forced
Language : English
Default : Yes
Forced : No





1 个附件 售价 大小 下载 时间

Godzilla.Vs.Destoroyah.1995.1080p.BluRay.x264-SADPANDA.torrent 0 金币 44.26K 994 次 2月前

#1楼
发帖时间:2019-08-14 16:39:23   |   回复数:4
blue23
隐世仙人♂
感谢楼主分享
2月前 #2楼
liyouchai
隐世仙人♂
谢谢楼主分享资源
2月前 #3楼
kola13
一派掌门
感谢分享
2月前 #4楼
911degrees
隐世仙人♂
非常感谢,谢谢分享
1月前 #5楼
游客组