conanlcg
超级版主

[更 早] [日本] [科幻] [BD-1080P] 哥斯拉对黑多拉 Godzilla.Vs.Hedorah.1971.1080p.BluRay.x264-PHOBOS 7.66GB

-->

帖子完整标题:哥斯拉对黑多拉 Godzilla.Vs.Hedorah.1971.1080p.BluRay.x264-PHOBOS 7.66GB




◎译  名 哥斯拉对黑多拉 / Godzilla vs. Hedora
◎片  名 ゴジラ対ヘドラ
◎年  代 1971
◎产  地 日本
◎类  别 科幻 / 恐怖 / 音乐
◎语  言 日语
◎上映日期 1971-12-10
◎IMDb评分 6.0/10 from 3865 users
◎IMDb链接 http://www.imdb.com/title/tt0067148
◎豆瓣评分 6.4/10 from 152 users
◎豆瓣链接 https://movie.douban.com/subject/2063917/
◎片  长 Germany: 96 分钟
◎导  演 坂野义光
◎编  剧 馬淵薫 / 坂野義光
◎主  演 山内明 Akira Yamanouchi
      柴本俊夫
      川濑裕之 Hiroyuki Kawase
      吉田义夫


◎标  签 日本 | 哥斯拉 | 科幻 | 特摄 | 日本电影 | 1971 | 电影 | 终于找到哥斯拉的电影了

◎简  介

  由于环境严重的污染,使得蝌蚪受到突变而成为黑多拉,并且造成极大的破坏,人类几乎束手无策,而哥吉拉也费尽了极大的心思跟他战斗,最后人类与哥斯拉一同战胜了黑多拉。
Video
ID : 1
Format : AVC
Format/Info : Advanced Video Codec
Format profile : [email protected]
Format settings : CABAC / 5 Ref Frames
Format settings, CABAC : Yes
Format settings, Reference frames : 5 frames
Codec ID : V_MPEG4/ISO/AVC
Duration : 1 h 25 min
Bit rate : 9 801 kb/s
Width : 1 920 pixels
Height : 816 pixels
Display aspect ratio : 2.35:1
Frame rate mode : Constant
Frame rate : 23.976 (24000/1001) FPS
Color space : YUV
Chroma subsampling : 4:2:0
Bit depth : 8 bits
Scan type : Progressive
Bits/(Pixel*Frame) : 0.261
Stream size : 5.85 GiB (76%)
Writing library : x264 core 142 r2479 dd79a61
Encoding settings : cabac=1 / ref=5 / deblock=1:0:0 / analyse=0x3:0x113 / me=umh / subme=8 / psy=1 / psy_rd=1.00:0.00 / mixed_ref=1 / me_range=16 / chroma_me=1 / trellis=1 / 8x8dct=1 / cqm=0 / deadzone=21,11 / fast_pskip=1 / chroma_qp_offset=-2 / threads=12 / lookahead_threads=2 / sliced_threads=0 / nr=0 / decimate=1 / interlaced=0 / bluray_compat=0 / constrained_intra=0 / bframes=3 / b_pyramid=2 / b_adapt=2 / b_bias=0 / direct=3 / weightb=1 / open_gop=0 / weightp=2 / keyint=240 / keyint_min=23 / scenecut=40 / intra_refresh=0 / rc_lookahead=50 / rc=2pass / mbtree=1 / bitrate=9801 / ratetol=1.0 / qcomp=0.60 / qpmin=0 / qpmax=69 / qpstep=4 / cplxblur=20.0 / qblur=0.5 / ip_ratio=1.40 / aq=1:1.00
Language : English
Default : Yes
Forced : No

Audio #1
ID : 2
Format : DTS
Format/Info : Digital Theater Systems
Codec ID : A_DTS
Duration : 1 h 25 min
Bit rate mode : Constant
Bit rate : 1 509 kb/s
Channel(s) : 2 channels
Channel layout : L R
Sampling rate : 48.0 kHz
Frame rate : 93.750 FPS (512 SPF)
Bit depth : 24 bits
Compression mode : Lossy
Stream size : 923 MiB (12%)
Language : Japanese
Default : Yes
Forced : No

Audio #2
ID : 3
Format : DTS
Format/Info : Digital Theater Systems
Codec ID : A_DTS
Duration : 1 h 25 min
Bit rate mode : Constant
Bit rate : 1 509 kb/s
Channel(s) : 2 channels
Channel layout : L R
Sampling rate : 48.0 kHz
Frame rate : 93.750 FPS (512 SPF)
Bit depth : 24 bits
Compression mode : Lossy
Stream size : 923 MiB (12%)
Language : English
Default : No
Forced : No

Text #1
ID : 4
Format : UTF-8
Codec ID : S_TEXT/UTF8
Codec ID/Info : UTF-8 Plain Text
Duration : 1 h 21 min
Bit rate : 22 b/s
Count of elements : 383
Stream size : 13.6 KiB (0%)
Language : English
Default : Yes
Forced : No

Text #2
ID : 5
Format : UTF-8
Codec ID : S_TEXT/UTF8
Codec ID/Info : UTF-8 Plain Text
Duration : 34 min 17 s
Bit rate : 0 b/s
Count of elements : 7
Stream size : 121 Bytes (0%)
Title : English (Forced)
Language : English
Default : No
Forced : Yes





1 个附件 售价 大小 下载 时间

Godzilla.Vs.Hedorah.1971.1080p.BluRay.x264-PHOBOS.torrent 0 金币 38.80K 721 次 2月前

#1楼
发帖时间:2019-08-14 16:35:26   |   回复数:4
blue23
隐世仙人♂
感谢楼主分享
2月前 #2楼
liyouchai
隐世仙人♂
谢谢楼主分享资源
2月前 #3楼
kola13
一派掌门
感谢分享
2月前 #4楼
911degrees
隐世仙人♂
非常感谢,谢谢分享
1月前 #5楼
游客组