conanlcg
超级版主

[2014] [日本] [其他] [BD-1080P] 乔瓦尼之岛 Giovannis.Island.2014.1080p.BluRay.x264-SPLiTSViLLE 6.55GB

-->

帖子完整标题:乔瓦尼之岛 Giovannis.Island.2014.1080p.BluRay.x264-SPLiTSViLLE 6.55GB


[img]https://img1.doubanio.com/view/photo/l_ratio_poster/public/p2160841808.jpg[img]

◎译  名 乔瓦尼之岛 / Giovanni no Shima / Giovanni's Island / 乔望尼之岛(台)
◎片  名 ジョバンニの島
◎年  代 2014
◎产  地 日本
◎类  别 动画
◎语  言 日语
◎上映日期 2014-02-22(日本)
◎IMDb评分 7.4/10 from 1495 users
◎IMDb链接 http://www.imdb.com/title/tt3178174
◎豆瓣评分 7.6/10 from 882 users
◎豆瓣链接 https://movie.douban.com/subject/25745650/
◎片  长 102分钟
◎导  演 西久保瑞穗 Mizuho Nishikubo
◎编  剧 杉田成道 Shigemichi Sugita / Yoshiki Sakurai
◎主  演 市村正亲 Masachika Ichimura
      仲间由纪惠 Yukie Nakama
      柳原可奈子 Kanako Yanagihara
      中山裕介 Yusuke Santamaria
      横山幸汰
      谷合純矢
      北岛三郎 Sabur? Kitajima
      犬塚弘 Hiroshi Inuzuka
      八千草薰 Kaoru Yachigusa
      仲代达矢 Tatsuya Nakadai


◎标  签 日本 | 动画 | 日本动画 | 2014 | 动画电影 | 剧场版 | 日本电影 | 动漫

◎简  介

  1945年的夏天,二次世界大战的阴影从地球上空褪去。远在北方的色丹岛无法独占宁静,炮火轰炸过后不久,苏联人的战舰军队到来,令日本岛民们不知是吉是凶。濑能家的两兄弟——10岁的淳平(横山幸汰 配音)和7岁的宽太(谷合纯矢 配音)见证着时代的巨大变革。最初的残酷过去,苏联人的家属来到岛上,不经意间种下了和平友爱的种子。通过音乐,苏日两国儿童成为可以唱歌玩耍的朋友,濑能兄弟则依靠玩具蒸汽火车和住在她家隔壁的女孩塔尼娅变得亲密无间,但好不容易得到的友情却因某起事件而破碎。
  在时代、民族、国家和政治的洪流中,孩子们的人生留下了最初却永远不会褪去的伤痕……

◎获奖情况

  第38届日本电影学院奖(2015)
  最佳动画片(提名)
Video
ID : 1
Format : AVC
Format/Info : Advanced Video Codec
Format profile : [email protected]
Format settings : CABAC / 4 Ref Frames
Format settings, CABAC : Yes
Format settings, Reference frames : 4 frames
Codec ID : V_MPEG4/ISO/AVC
Duration : 1 h 41 min
Bit rate : 6 221 kb/s
Width : 1 920 pixels
Height : 1 080 pixels
Display aspect ratio : 16:9
Frame rate mode : Constant
Frame rate : 23.976 (24000/1001) FPS
Original frame rate : 23.976 (23976/1000) FPS
Color space : YUV
Chroma subsampling : 4:2:0
Bit depth : 8 bits
Scan type : Progressive
Bits/(Pixel*Frame) : 0.125
Stream size : 4.41 GiB (67%)
Writing library : x264 core 144 r2525 40bb568
Encoding settings : cabac=1 / ref=4 / deblock=1:0:0 / analyse=0x3:0x133 / me=umh / subme=7 / psy=1 / psy_rd=1.00:0.00 / mixed_ref=1 / me_range=16 / chroma_me=1 / trellis=1 / 8x8dct=1 / cqm=0 / deadzone=21,11 / fast_pskip=0 / chroma_qp_offset=-2 / threads=12 / lookahead_threads=2 / sliced_threads=0 / nr=0 / decimate=1 / interlaced=0 / bluray_compat=0 / constrained_intra=0 / bframes=3 / b_pyramid=2 / b_adapt=2 / b_bias=0 / direct=3 / weightb=1 / open_gop=0 / weightp=2 / keyint=250 / keyint_min=23 / scenecut=40 / intra_refresh=0 / rc_lookahead=50 / rc=2pass / mbtree=1 / bitrate=6221 / ratetol=1.0 / qcomp=0.60 / qpmin=0 / qpmax=69 / qpstep=4 / cplxblur=20.0 / qblur=0.5 / ip_ratio=1.40 / aq=1:1.00
Language : English
Default : Yes
Forced : No

Audio #1
ID : 2
Format : DTS
Format/Info : Digital Theater Systems
Codec ID : A_DTS
Duration : 1 h 41 min
Bit rate mode : Constant
Bit rate : 1 509 kb/s
Channel(s) : 6 channels
Channel layout : C L R Ls Rs LFE
Sampling rate : 48.0 kHz
Frame rate : 93.750 FPS (512 SPF)
Bit depth : 24 bits
Compression mode : Lossy
Stream size : 1.07 GiB (16%)
Language : Japanese
Default : Yes
Forced : No

Audio #2
ID : 3
Format : DTS
Format/Info : Digital Theater Systems
Codec ID : A_DTS
Duration : 1 h 41 min
Bit rate mode : Constant
Bit rate : 1 509 kb/s
Channel(s) : 6 channels
Channel layout : C L R Ls Rs LFE
Sampling rate : 48.0 kHz
Frame rate : 93.750 FPS (512 SPF)
Bit depth : 24 bits
Compression mode : Lossy
Stream size : 1.07 GiB (16%)
Language : English
Default : No
Forced : No

Text
ID : 4
Format : UTF-8
Codec ID : S_TEXT/UTF8
Codec ID/Info : UTF-8 Plain Text
Duration : 1 h 33 min
Bit rate : 47 b/s
Count of elements : 1011
Stream size : 32.4 KiB (0%)
Language : English
Default : Yes
Forced : No

Menu
00:00:00.000 : en:00:00:00.000
00:04:17.841 : en:00:04:17.841
00:13:19.716 : en:00:13:19.716
00:25:15.556 : en:00:25:15.556
00:37:33.293 : en:00:37:33.293
00:52:21.221 : en:00:52:21.221
01:05:02.774 : en:01:05:02.774
01:20:59.938 : en:01:20:59.938
01:34:18.611 : en:01:34:18.611





1 个附件 售价 大小 下载 时间

Giovannis.Island.2014.1080p.BluRay.x264-SPLiTSViLLE.torrent 0 金币 33.26K 399 次 1月前

#1楼
发帖时间:2019-08-13 01:23:47   |   回复数:2
liyouchai
隐世仙人♂
谢谢楼主分享资源
1月前 #2楼
911degrees
隐世仙人♂
非常感谢,谢谢分享
1月前 #3楼
游客组