conanlcg
超级版主

[2011] [欧美] [其他] [BD-1080P] 无姓之人:CIA探员 The.Man.Nobody.Knew.In.Search.of.My.Father.CIA.Spymaster.William.Colb

-->

帖子完整标题:无姓之人:CIA探员 The.Man.Nobody.Knew.In.Search.of.My.Father.CIA.Spymaster.William.Colby.2011.1080p.BluRay.x264-SPRiNTER 7.66GB


[img]https://img1.doubanio.com/view/photo/l_ratio_poster/public/p1168171422.jpg[img]

◎译  名 无姓之人:CIA探员
◎片  名 THE MAN NOBODY KNEW: In Search of My Father, CIA Spymaster William Colby
◎年  代 2011
◎产  地 美国
◎类  别 纪录片 / 传记 / 历史
◎语  言 英语
◎IMDb评分 6.7/10 from 398 users
◎IMDb链接 http://www.imdb.com/title/tt1931549
◎豆瓣评分 0/10 from 0 users
◎豆瓣链接 https://movie.douban.com/subject/6792300/
◎导  演 Carl Colby

◎标  签 纪录片 | 美国 | CIA | 传记 | 历史 | 政治 | Documentary | WilliamColby

◎简  介

  故事主要纪录了美国CIA的间谍之王(Spymaster)的传奇,由导演Carl Colby(间谍之王的儿子)讲述并拍摄成纪录片。
  本片揭露前CIA探员William Colby于执勤期间的卧底任务,与政治秘辛。
  导演Carl Colby身为前CIA探员William Colby的儿子,以本片纪录父亲于任职期间的轶事。
  本片以前CIA探员William Colby的儿子与妻子的观点,叙述这名具争议性伟大CIA探员的事迹。William Colby曾经参与多项美国间谍任务,于片中将揭露CIA的卧底生活,以及幕后的诸多秘辛。
Video
ID : 1
Format : AVC
Format/Info : Advanced Video Codec
Format profile : [email protected]
Format settings, CABAC : Yes
Format settings, ReFrames : 4 frames
Codec ID : V_MPEG4/ISO/AVC
Duration : 1h 44mn
Bit rate : 9 001 Kbps
Width : 1 920 pixels
Height : 1 080 pixels
Display aspect ratio : 16:9
Frame rate mode : Constant
Frame rate : 23.976 (24000/1001) fps
Color space : YUV
Chroma subsampling : 4:2:0
Bit depth : 8 bits
Scan type : Progressive
Bits/(Pixel*Frame) : 0.181
Stream size : 6.55 GiB (86%)
Writing library : x264 core 148 r2744 b97ae06
Encoding settings : cabac=1 / ref=4 / deblock=1:-3:-3 / analyse=0x3:0x133 / me=umh / subme=9 / psy=1 / psy_rd=1.00:0.00 / mixed_ref=1 / me_range=16 / chroma_me=1 / trellis=2 / 8x8dct=1 / cqm=0 / deadzone=21,11 / fast_pskip=0 / chroma_qp_offset=-2 / threads=34 / lookahead_threads=2 / sliced_threads=0 / nr=0 / decimate=1 / interlaced=0 / bluray_compat=0 / constrained_intra=0 / bframes=3 / b_pyramid=2 / b_adapt=1 / b_bias=0 / direct=3 / weightb=1 / open_gop=0 / weightp=2 / keyint=240 / keyint_min=23 / scenecut=40 / intra_refresh=0 / rc_lookahead=50 / rc=2pass / mbtree=1 / bitrate=9001 / ratetol=1.0 / qcomp=0.60 / qpmin=0 / qpmax=69 / qpstep=4 / cplxblur=20.0 / qblur=0.5 / ip_ratio=1.40 / aq=1:1.00
Language : English
Default : Yes
Forced : No

Audio
ID : 2
Format : DTS
Format/Info : Digital Theater Systems
Mode : 16
Format settings, Endianness : Big
Codec ID : A_DTS
Duration : 1h 44mn
Bit rate mode : Constant
Bit rate : 1 509 Kbps
Channel(s) : 6 channels
Channel positions : Front: L C R, Side: L R, LFE
Sampling rate : 48.0 KHz
Frame rate : 93.750 fps (512 spf)
Bit depth : 24 bits
Compression mode : Lossy
Stream size : 1.10 GiB (14%)
Language : English
Default : Yes
Forced : No

Menu
00:00:00.000 : en:00:00:00.000
00:09:28.134 : en:00:09:28.134
00:16:18.578 : en:00:16:18.578
00:26:38.430 : en:00:26:38.430
00:38:39.350 : en:00:38:39.350
00:49:43.013 : en:00:49:43.013
01:02:42.058 : en:01:02:42.058
01:11:34.290 : en:01:11:34.290
01:22:32.314 : en:01:22:32.314
01:26:12.234 : en:01:26:12.234
01:30:19.481 : en:01:30:19.481
01:35:06.200 : en:01:35:06.200





45 个附件 售价 大小 下载 时间

Finding.Steve.McQueen.2019.1080p.BluRay.AVC.DTS-HD.MA.5.1-FGT.torrent 0 金币 77.60K 140 次 1月前

Finding.Steve.McQueen.2019.1080p.BluRay.REMUX.AVC.DTS-HD.MA.5.1-FGT.torrent 0 金币 51.75K 91 次 1月前

The.Magdalene.Sisters.2002.1080p.AMZN.WEBRip.DDP5.1.x264-NTb.torrent 0 金币 61.71K 105 次 1月前

The.Assignment.1997.1080p.AMZN.WEBRip.DDP5.1.x264-NTb.torrent 0 金币 60.03K 91 次 1月前

Rat.Race.2001.1080p.AMZN.WEBRip.DDP5.1.x264-NTb.torrent 0 金币 57.31K 91 次 1月前

In.the.Bedroom.2001.1080p.AMZN.WEBRip.DDP5.1.x264-NTb.torrent 0 金币 61.74K 105 次 1月前

Enough.2002.1080p.AMZN.WEBRip.DD5.1.x264-NTb.torrent 0 金币 57.82K 91 次 1月前

Away.from.Her.2006.1080p.AMZN.WEBRip.DDP5.1.x264-NTb.torrent 0 金币 54.38K 91 次 1月前

Grain.AKA.Bugday.2017.1080p.AMZN.WEBRip.DDP5.1.x264-Cinefeel.torrent 0 金币 45.25K 98 次 1月前

Barracuda.2017.1080p.AMZN.WEBRip.DDP2.0.x264-TEPES.torrent 0 金币 34.04K 98 次 1月前

The.Object.Of.My.Affection.1998.1080p.AMZN.WEBRip.DDP5.1.x264-SiGMA.torrent 0 金币 53.37K 98 次 1月前

Finding.Steve.McQueen.2019.1080p.BluRay.AVC.DTS-HD.MA.5.1-FGT.torrent 0 金币 77.60K 84 次 1月前

Finding.Steve.McQueen.2019.1080p.BluRay.REMUX.AVC.DTS-HD.MA.5.1-FGT.torrent 0 金币 51.75K 91 次 1月前

Urban.Cowboy.1980.1080p.AMZN.WEBRip.DDP5.1.x264-NTb.torrent 0 金币 58.91K 112 次 1月前

Men.With.Brooms.2002.1080p.AMZN.WEBRip.DDP5.1.x264-NTb.torrent 0 金币 54.53K 91 次 1月前

In.the.Bedroom.2001.1080p.AMZN.WEBRip.DDP5.1.x264-NTb.torrent 0 金币 61.74K 91 次 1月前

Enough.2002.1080p.AMZN.WEBRip.DD5.1.x264-NTb.torrent 0 金币 57.82K 98 次 1月前

Away.from.Her.2006.1080p.AMZN.WEBRip.DDP5.1.x264-NTb.torrent 0 金币 54.38K 91 次 1月前

Grain.AKA.Bugday.2017.1080p.AMZN.WEBRip.DDP5.1.x264-Cinefeel.torrent 0 金币 45.25K 105 次 1月前

Away.from.Her.2006.1080p.AMZN.WEBRip.DDP5.1.x264-NTb.torrent 0 金币 54.38K 98 次 1月前

Grain.AKA.Bugday.2017.1080p.AMZN.WEBRip.DDP5.1.x264-Cinefeel.torrent 0 金币 45.25K 105 次 1月前

Barracuda.2017.1080p.AMZN.WEBRip.DDP2.0.x264-TEPES.torrent 0 金币 34.04K 91 次 1月前

The.Object.Of.My.Affection.1998.1080p.AMZN.WEBRip.DDP5.1.x264-SiGMA.torrent 0 金币 53.37K 105 次 1月前

Finding.Steve.McQueen.2019.1080p.BluRay.AVC.DTS-HD.MA.5.1-FGT.torrent 0 金币 77.60K 84 次 1月前

Finding.Steve.McQueen.2019.1080p.BluRay.REMUX.AVC.DTS-HD.MA.5.1-FGT.torrent 0 金币 51.75K 91 次 1月前

Thor.The.Dark.World.2013.2160p.UHD.BluRay.X265.10bit.HDR.TrueHD.7.1.Atmos-IAMABLE.torrent 0 金币 54.13K 91 次 1月前

Thor.2011.2160p.UHD.BluRay.X265.10bit.HDR.TrueHD.7.1.Atmos-IAMABLE.torrent 0 金币 86.16K 84 次 1月前

Head.Full.of.Honey.2018.1080p.WEBRip.x264-RARBG.torrent 0 金币 25.06K 98 次 1月前

Allies.2014.1080p.WEBRip.x264-RARBG.torrent 0 金币 18.39K 91 次 1月前

Grain.AKA.Bugday.2017.1080p.WEBRip.x264-RARBG.torrent 0 金币 25.13K 98 次 1月前

Urban.Cowboy.1980.1080p.AMZN.WEBRip.DDP5.1.x264-NTb.torrent 0 金币 58.91K 91 次 1月前

Triumph.of.the.Spirit.1989.1080p.AMZN.WEBRip.DDP2.0.x264-NTb.torrent 0 金币 60.09K 91 次 1月前

The.Magdalene.Sisters.2002.1080p.AMZN.WEBRip.DDP5.1.x264-NTb.torrent 0 金币 61.71K 91 次 1月前

The.Candidate.1972.1080p.AMZN.WEBRip.DDP2.0.x264-NTb.torrent 0 金币 58.43K 98 次 1月前

The.Assignment.1997.1080p.AMZN.WEBRip.DDP5.1.x264-NTb.torrent 0 金币 60.03K 91 次 1月前

Rat.Race.2001.1080p.AMZN.WEBRip.DDP5.1.x264-NTb.torrent 0 金币 57.31K 91 次 1月前

Men.With.Brooms.2002.1080p.AMZN.WEBRip.DDP5.1.x264-NTb.torrent 0 金币 54.53K 91 次 1月前

In.the.Bedroom.2001.1080p.AMZN.WEBRip.DDP5.1.x264-NTb.torrent 0 金币 61.74K 91 次 1月前

Final.Analysis.1992.1080p.AMZN.WEBRip.DDP2.0.x264-NTb.torrent 0 金币 58.64K 84 次 1月前

Enough.2002.1080p.AMZN.WEBRip.DD5.1.x264-NTb.torrent 0 金币 57.82K 98 次 1月前

Away.from.Her.2006.1080p.AMZN.WEBRip.DDP5.1.x264-NTb.torrent 0 金币 54.38K 84 次 1月前

Grain.AKA.Bugday.2017.1080p.AMZN.WEBRip.DDP5.1.x264-Cinefeel.torrent 0 金币 45.25K 84 次 1月前

Barracuda.2017.1080p.AMZN.WEBRip.DDP2.0.x264-TEPES.torrent 0 金币 34.04K 98 次 1月前

The.Object.Of.My.Affection.1998.1080p.AMZN.WEBRip.DDP5.1.x264-SiGMA.torrent 0 金币 53.37K 98 次 1月前

The.Man.Nobody.Knew.In.Search.of.My.Father.CIA.Spymaster.William.Colby.2011.1080p.BluRay.x264-SPRiNTER.torrent 0 金币 77.49K 210 次 1月前

#1楼
发帖时间:2019-08-12 21:36:27   |   回复数:2
911degrees
隐世仙人♂
非常感谢,谢谢分享
1月前 #2楼
liyouchai
隐世仙人♂
谢谢楼主分享资源
1月前 #3楼
游客组