conanlcg
超级版主

[2014] [欧美] [剧情] [WEB-1080P] 盟军/友军 Allies.2014.1080p.AMZN.WEBRip.DDP5.1.x264-TEPES 7.40GB

-->

帖子完整标题:盟军/友军 Allies.2014.1080p.AMZN.WEBRip.DDP5.1.x264-TEPES 7.40GB


[img]https://img1.doubanio.com/view/photo/l_ratio_poster/public/p2230444211.jpg[img]

◎译  名 盟军 / 友军 / 盟友
◎片  名 Allies
◎年  代 2014
◎产  地 英国
◎类  别 剧情 / 动作 / 战争
◎语  言 英语 / 法语 / 德语
◎上映日期 2014-11-01
◎IMDb评分 5.1/10 from 788 users
◎IMDb链接 http://www.imdb.com/title/tt3204734
◎豆瓣评分 0/10 from 0 users
◎豆瓣链接 https://movie.douban.com/subject/26334313/
◎片  长 93分钟
◎导  演 多米尼克·伯恩斯
◎编  剧 多米尼克·伯恩斯 / ,杰里米·谢尔登
◎主  演 朱利安·欧文顿
      克里斯·蕾莉
      马特·威利斯


◎标  签 英国 | 战争 | 二战 | 2014 | 美國 | 美国 | 戰爭 | 二戰

◎简  介

  1944年8月,诺曼底登陆两个月后,盟军向法国纵深推进。一支由英国士兵和美国士兵组成的突击队,由军士哈里·麦克贝恩和队长加布里埃尔·杰克逊带领下,空降至敌后执行侦查任务,到敌后伏击德国军官绘制德军前沿阵地火炮位置分布图,他们必须抛开个人的恩怨、齐心协力完成此次的侦查任务。
Video
ID : 1
Format : AVC
Format/Info : Advanced Video Codec
Format profile : [email protected]
Format settings : CABAC / 4 Ref Frames
Format settings, CABAC : Yes
Format settings, Reference frames : 4 frames
Codec ID : V_MPEG4/ISO/AVC
Duration : 1 h 33 min
Bit rate : 10.7 Mb/s
Width : 1 920 pixels
Height : 800 pixels
Display aspect ratio : 2.40:1
Frame rate mode : Constant
Frame rate : 24.000 FPS
Color space : YUV
Chroma subsampling : 4:2:0
Bit depth : 8 bits
Scan type : Progressive
Bits/(Pixel*Frame) : 0.290
Stream size : 6.98 GiB (94%)
Default : Yes
Forced : No
Color range : Limited
Color primaries : BT.709
Transfer characteristics : BT.709
Matrix coefficients : BT.709

Audio
ID : 2
Format : E-AC-3
Format/Info : Enhanced AC-3
Commercial name : Dolby Digital Plus
Codec ID : A_EAC3
Duration : 1 h 33 min
Bit rate mode : Constant
Bit rate : 640 kb/s
Channel(s) : 6 channels
Channel layout : L R C LFE Ls Rs
Sampling rate : 48.0 kHz
Frame rate : 31.250 FPS (1536 SPF)
Compression mode : Lossy
Stream size : 428 MiB (6%)
Language : English
Service kind : Complete Main
Default : Yes
Forced : No

Text
ID : 3
Format : UTF-8
Codec ID : S_TEXT/UTF8
Codec ID/Info : UTF-8 Plain Text
Duration : 1 h 28 min
Bit rate : 39 b/s
Count of elements : 932
Stream size : 25.9 KiB (0%)
Title : English [CC](SDH)
Language : English
Default : Yes
Forced : No





1 个附件 售价 大小 下载 时间

Allies.2014.1080p.AMZN.WEBRip.DDP5.1.x264-TEPES.torrent 0 金币 37.51K 448 次 1月前

#1楼
发帖时间:2019-08-12 16:12:07   |   回复数:4
blue23
隐世仙人♂
感谢楼主分享
1月前 #2楼
911degrees
隐世仙人♂
非常感谢,谢谢分享
1月前 #3楼
liyouchai
隐世仙人♂
谢谢楼主分享资源
1月前 #4楼
tanchoohoon
武林盟主
感谢楼主的无私分享
1月前 #5楼
游客组