conanlcg
超级版主

[2011] [欧美] [动作] [4K-原盘] 雷神 Thor.2011.2160p.BluRay.REMUX.HEVC.DTS-HD.MA.TrueHD.7.1.Atmos-FGT 58.95GB

-->

帖子完整标题:雷神 Thor.2011.2160p.BluRay.REMUX.HEVC.DTS-HD.MA.TrueHD.7.1.Atmos-FGT 58.95GB


[img]https://img1.doubanio.com/view/photo/l_ratio_poster/public/p2159068249.jpg[img]

◎译  名 雷神 / The Mighty Thor / 托尔 / 雷神之锤 / 雷神奇侠(港) / 雷神归来 / 雷神托尔 / 雷神索尔(台)
◎片  名 Thor
◎年  代 2011
◎产  地 美国
◎类  别 动作 / 奇幻 / 冒险
◎语  言 英语
◎上映日期 2011-05-06(美国) / 2011-05-08(中国大陆)
◎IMDb评分 7.0/10 from 691648 users
◎IMDb链接 http://www.imdb.com/title/tt0800369
◎豆瓣评分 7.0/10 from 241891 users
◎豆瓣链接 https://movie.douban.com/subject/1866471/
◎片  长 115分钟
◎导  演 肯尼思·布拉纳 Kenneth Branagh
◎编  剧 阿什利·米勒 Ashley Miller / 扎克·施坦茨 Zack Stentz / 唐·佩恩 Don Payne / J·迈克尔·斯特拉辛斯基 J. Michael Straczynski / 马克·波托塞维奇 Mark Protosevich / 斯坦·李 Stan Lee / 拉里·利伯 Larry Lieber / 杰克·科比 Jack Kirby
◎主  演 克里斯·海姆斯沃斯 Chris Hemsworth
      娜塔莉·波特曼 Natalie Portman
      汤姆·希德勒斯顿 Tom Hiddleston
      安东尼·霍普金斯 Anthony Hopkins
      斯特兰·斯卡斯加德 Stellan Skarsg?rd
      凯特·戴琳斯 Kat Dennings
      克拉克·格雷格 Clark Gregg
      科鲁姆·费奥瑞 Colm Feore
      伊德里斯·艾尔巴 Idris Elba
      雷·史蒂文森 Ray Stevenson
      浅野忠信 Tadanobu Asano
      乔希·达拉斯 Josh Dallas
      杰米·亚历山大 Jaimie Alexander
      蕾妮·罗素 Rene Russo
      艾德里安娜·巴拉扎 Adriana Barraza
      马克斯米利亚诺·赫尔南德斯 Maximiliano Hernández
      杰瑞米·雷纳 Jeremy Renner
      塞缪尔·杰克逊 Samuel L. Jackson
      达科塔·高尤 Dakota Goyo
      泰德·沃普莱斯 ted allpress
      斯坦·李 Stan Lee


◎标  签 美国 | 科幻 | 漫画改编 | 漫威 | 动作 | 神话 | 2011 | 奇幻

◎简  介

  勇敢善战雷神托尔(克里斯?海姆斯沃斯 Chris Hemsworth 饰),作为永恒境界阿斯加德的王位继承人,受人敬仰。然而由于一次鲁莽的行动,险些挑起一场古老的战争,因此被父亲天神奥丁(安东尼?霍普金斯 Anthony Hopkins 饰)流放到人间。托尔在人间认识了 美丽的女科学家珍?福斯特(娜塔莉?波特曼 Natalie Portman 饰)和她的工作伙伴,在他们的帮助下,托尔找到了和自己一起被贬的雷神之锤,但此时的雷神之锤并不属于他。此间,托尔的弟弟洛基为了成为阿斯加德的王,居然联合寒冰巨人,企图在永恒境界掀起一场腥风血雨。为了维持永恒之界的法度,托尔的四位朋友也来到人间,他们决定带托尔返回永恒之境。此时,为了阻止雷神重归永恒境界,洛基派出巨人杀死托尔。丧失能力和法战的托尔为了保护无辜的人类与自己的朋友,献出了自己的生命。托尔的死打破了天神的的咒语,托尔复活并重获雷神之力战胜巨人。此时,天神生命危在旦夕,托尔必须与自己的朋友们重返永恒之界,维护那里的法度……
  本片改编自传奇漫画家搭档斯坦?李(Stan Lee)和杰克?科比(Jack Kirby)于1962年推出《雷神》连载漫画。

◎获奖情况

  第21届MTV电影奖(2012)
  MTV电影奖 最佳英雄形象(提名) 克里斯·海姆斯沃斯

  第13届美国青少年选择奖(2011)
  Choice Movie Breakout: Male(提名) 克里斯·海姆斯沃斯
Video
ID : 1
Format : HEVC
Format/Info : High Efficiency Video Coding
Format profile : Main [email protected]@High
HDR format : SMPTE ST 2086, HDR10 compatible
Codec ID : V_MPEGH/ISO/HEVC
Duration : 1 h 54 min
Bit rate : 54.8 Mb/s
Width : 3 840 pixels
Height : 2 160 pixels
Display aspect ratio : 16:9
Frame rate mode : Constant
Frame rate : 23.976 (24000/1001) FPS
Color space : YUV
Chroma subsampling : 4:2:0 (Type 2)
Bit depth : 10 bits
Bits/(Pixel*Frame) : 0.276
Stream size : 44.0 GiB (75%)
Title : Thor.2011.2160p.BluRay.REMUX.HEVC.DTS-HD.MA.TrueHD.7.1.Atmos-FGT
Language : English
Default : No
Forced : No
Color range : Limited
Color primaries : BT.2020
Transfer characteristics : PQ
Matrix coefficients : BT.2020 non-constant
Mastering display color primaries : Display P3
Mastering display luminance : min: 0.0050 cd/m2, max: 4000 cd/m2
Maximum Content Light Level : 566 cd/m2
Maximum Frame-Average Light Level : 561 cd/m2

Audio #1
ID : 2
Format : MLP FBA 16-ch
Format/Info : Meridian Lossless Packing FBA with 16-channel presentation
Commercial name : Dolby TrueHD with Dolby Atmos
Codec ID : A_TRUEHD
Duration : 1 h 54 min
Bit rate mode : Variable
Bit rate : 4 938 kb/s
Maximum bit rate : 8 058 kb/s
Channel(s) : 8 channels
Channel layout : L R C LFE Ls Rs Lb Rb
Sampling rate : 48.0 kHz
Frame rate : 1 200.000 FPS (40 SPF)
Compression mode : Lossless
Stream size : 3.96 GiB (7%)
Title : Thor.2011.2160p.BluRay.REMUX.HEVC.DTS-HD.MA.TrueHD.7.1.Atmos-FGT
Language : English
Default : Yes
Forced : No
Number of dynamic objects : 13
Bed channel count : 1 channel
Bed channel configuration : LFE

Audio #2
ID : 3
Format : DTS XLL
Format/Info : Digital Theater Systems
Commercial name : DTS-HD Master Audio
Codec ID : A_DTS
Duration : 1 h 54 min
Bit rate mode : Variable
Bit rate : 3 964 kb/s
Channel(s) : 8 channels
Channel layout : C L R LFE Lb Rb Lss Rss
Sampling rate : 48.0 kHz
Frame rate : 93.750 FPS (512 SPF)
Bit depth : 24 bits
Compression mode : Lossless
Stream size : 3.18 GiB (5%)
Title : Thor.2011.2160p.BluRay.REMUX.HEVC.DTS-HD.MA.TrueHD.7.1.Atmos-FGT
Language : English
Default : No
Forced : No

Audio #3
ID : 4
Format : AC-3
Format/Info : Audio Coding 3
Commercial name : Dolby Digital
Codec ID : A_AC3
Duration : 1 h 54 min
Bit rate mode : Constant
Bit rate : 640 kb/s
Channel(s) : 6 channels
Channel layout : L R C LFE Ls Rs
Sampling rate : 48.0 kHz
Frame rate : 31.250 FPS (1536 SPF)
Bit depth : 16 bits
Compression mode : Lossy
Stream size : 526 MiB (1%)
Title : Thor.2011.2160p.BluRay.REMUX.HEVC.DTS-HD.MA.TrueHD.7.1.Atmos-FGT
Language : English
Service kind : Complete Main
Default : No
Forced : No

Audio #4
ID : 5
Format : AC-3
Format/Info : Audio Coding 3
Commercial name : Dolby Digital
Codec ID : A_AC3
Duration : 1 h 54 min
Bit rate mode : Constant
Bit rate : 320 kb/s
Channel(s) : 2 channels
Channel layout : L R
Sampling rate : 48.0 kHz
Frame rate : 31.250 FPS (1536 SPF)
Bit depth : 16 bits
Compression mode : Lossy
Stream size : 263 MiB (0%)
Title : Thor.2011.2160p.BluRay.REMUX.HEVC.DTS-HD.MA.TrueHD.7.1.Atmos-FGT
Language : English
Service kind : Complete Main
Default : No
Forced : No

Audio #5
ID : 6
Format : AC-3
Format/Info : Audio Coding 3
Commercial name : Dolby Digital
Codec ID : A_AC3
Duration : 1 h 54 min
Bit rate mode : Constant
Bit rate : 640 kb/s
Channel(s) : 6 channels
Channel layout : L R C LFE Ls Rs
Sampling rate : 48.0 kHz
Frame rate : 31.250 FPS (1536 SPF)
Bit depth : 16 bits
Compression mode : Lossy
Stream size : 526 MiB (1%)
Title : Thor.2011.2160p.BluRay.REMUX.HEVC.DTS-HD.MA.TrueHD.7.1.Atmos-FGT
Language : French
Service kind : Complete Main
Default : No
Forced : No

Audio #6
ID : 7
Format : E-AC-3
Format/Info : Enhanced AC-3
Commercial name : Dolby Digital Plus
Format profile : Blu-ray Disc
Codec ID : A_EAC3
Duration : 1 h 54 min
Bit rate mode : Constant
Bit rate : 1 024 kb/s
Channel(s) : 8 channels
Channel layout : L R C LFE Ls Rs Lb Rb
Sampling rate : 48.0 kHz
Frame rate : 31.250 FPS (1536 SPF)
Compression mode : Lossy
Stream size : 841 MiB (1%)
Title : Thor.2011.2160p.BluRay.REMUX.HEVC.DTS-HD.MA.TrueHD.7.1.Atmos-FGT
Language : French
Service kind : Complete Main
Default : No
Forced : No

Audio #7
ID : 8
Format : AC-3
Format/Info : Audio Coding 3
Commercial name : Dolby Digital
Codec ID : A_AC3
Duration : 1 h 54 min
Bit rate mode : Constant
Bit rate : 576 kb/s
Channel(s) : 6 channels
Channel layout : L R C LFE Ls Rs
Sampling rate : 48.0 kHz
Frame rate : 31.250 FPS (1536 SPF)
Bit depth : 16 bits
Compression mode : Lossy
Stream size : 473 MiB (1%)
Title : Thor.2011.2160p.BluRay.REMUX.HEVC.DTS-HD.MA.TrueHD.7.1.Atmos-FGT
Language : French
Service kind : Complete Main
Default : No
Forced : No

Audio #8
ID : 9
Format : E-AC-3
Format/Info : Enhanced AC-3
Commercial name : Dolby Digital Plus
Format profile : Blu-ray Disc
Codec ID : A_EAC3
Duration : 1 h 54 min
Bit rate mode : Constant
Bit rate : 1 024 kb/s
Channel(s) : 8 channels
Channel layout : L R C LFE Ls Rs Lb Rb
Sampling rate : 48.0 kHz
Frame rate : 31.250 FPS (1536 SPF)
Compression mode : Lossy
Stream size : 841 MiB (1%)
Title : Thor.2011.2160p.BluRay.REMUX.HEVC.DTS-HD.MA.TrueHD.7.1.Atmos-FGT
Language : Spanish
Service kind : Complete Main
Default : No
Forced : No

Audio #9
ID : 10
Format : AC-3
Format/Info : Audio Coding 3
Commercial name : Dolby Digital
Codec ID : A_AC3
Duration : 1 h 54 min
Bit rate mode : Constant
Bit rate : 576 kb/s
Channel(s) : 6 channels
Channel layout : L R C LFE Ls Rs
Sampling rate : 48.0 kHz
Frame rate : 31.250 FPS (1536 SPF)
Bit depth : 16 bits
Compression mode : Lossy
Stream size : 473 MiB (1%)
Title : Thor.2011.2160p.BluRay.REMUX.HEVC.DTS-HD.MA.TrueHD.7.1.Atmos-FGT
Language : Spanish
Service kind : Complete Main
Default : No
Forced : No

Audio #10
ID : 11
Format : E-AC-3
Format/Info : Enhanced AC-3
Commercial name : Dolby Digital Plus
Format profile : Blu-ray Disc
Codec ID : A_EAC3
Duration : 1 h 54 min
Bit rate mode : Constant
Bit rate : 1 024 kb/s
Channel(s) : 8 channels
Channel layout : L R C LFE Ls Rs Lb Rb
Sampling rate : 48.0 kHz
Frame rate : 31.250 FPS (1536 SPF)
Compression mode : Lossy
Stream size : 841 MiB (1%)
Title : Thor.2011.2160p.BluRay.REMUX.HEVC.DTS-HD.MA.TrueHD.7.1.Atmos-FGT
Language : German
Service kind : Complete Main
Default : No
Forced : No

Audio #11
ID : 12
Format : AC-3
Format/Info : Audio Coding 3
Commercial name : Dolby Digital
Codec ID : A_AC3
Duration : 1 h 54 min
Bit rate mode : Constant
Bit rate : 576 kb/s
Channel(s) : 6 channels
Channel layout : L R C LFE Ls Rs
Sampling rate : 48.0 kHz
Frame rate : 31.250 FPS (1536 SPF)
Bit depth : 16 bits
Compression mode : Lossy
Stream size : 473 MiB (1%)
Title : Thor.2011.2160p.BluRay.REMUX.HEVC.DTS-HD.MA.TrueHD.7.1.Atmos-FGT
Language : German
Service kind : Complete Main
Default : No
Forced : No

Audio #12
ID : 13
Format : E-AC-3
Format/Info : Enhanced AC-3
Commercial name : Dolby Digital Plus
Format profile : Blu-ray Disc
Codec ID : A_EAC3
Duration : 1 h 54 min
Bit rate mode : Constant
Bit rate : 1 024 kb/s
Channel(s) : 8 channels
Channel layout : L R C LFE Ls Rs Lb Rb
Sampling rate : 48.0 kHz
Frame rate : 31.250 FPS (1536 SPF)
Compression mode : Lossy
Stream size : 841 MiB (1%)
Title : Thor.2011.2160p.BluRay.REMUX.HEVC.DTS-HD.MA.TrueHD.7.1.Atmos-FGT
Language : Italian
Service kind : Complete Main
Default : No
Forced : No

Audio #13
ID : 14
Format : AC-3
Format/Info : Audio Coding 3
Commercial name : Dolby Digital
Codec ID : A_AC3
Duration : 1 h 54 min
Bit rate mode : Constant
Bit rate : 576 kb/s
Channel(s) : 6 channels
Channel layout : L R C LFE Ls Rs
Sampling rate : 48.0 kHz
Frame rate : 31.250 FPS (1536 SPF)
Bit depth : 16 bits
Compression mode : Lossy
Stream size : 473 MiB (1%)
Title : Thor.2011.2160p.BluRay.REMUX.HEVC.DTS-HD.MA.TrueHD.7.1.Atmos-FGT
Language : Italian
Service kind : Complete Main
Default : No
Forced : No

Audio #14
ID : 15
Format : E-AC-3
Format/Info : Enhanced AC-3
Commercial name : Dolby Digital Plus
Format profile : Blu-ray Disc
Codec ID : A_EAC3
Duration : 1 h 54 min
Bit rate mode : Constant
Bit rate : 1 024 kb/s
Channel(s) : 8 channels
Channel layout : L R C LFE Ls Rs Lb Rb
Sampling rate : 48.0 kHz
Frame rate : 31.250 FPS (1536 SPF)
Compression mode : Lossy
Stream size : 841 MiB (1%)
Title : Thor.2011.2160p.BluRay.REMUX.HEVC.DTS-HD.MA.TrueHD.7.1.Atmos-FGT
Language : Japanese
Service kind : Complete Main
Default : No
Forced : No

Audio #15
ID : 16
Format : AC-3
Format/Info : Audio Coding 3
Commercial name : Dolby Digital
Codec ID : A_AC3
Duration : 1 h 54 min
Bit rate mode : Constant
Bit rate : 576 kb/s
Channel(s) : 6 channels
Channel layout : L R C LFE Ls Rs
Sampling rate : 48.0 kHz
Frame rate : 31.250 FPS (1536 SPF)
Bit depth : 16 bits
Compression mode : Lossy
Stream size : 473 MiB (1%)
Title : Thor.2011.2160p.BluRay.REMUX.HEVC.DTS-HD.MA.TrueHD.7.1.Atmos-FGT
Language : Japanese
Service kind : Complete Main
Default : No
Forced : No

Text #1
ID : 17
Format : UTF-8
Codec ID : S_TEXT/UTF8
Codec ID/Info : UTF-8 Plain Text
Duration : 1 h 53 min
Bit rate : 39 b/s
Count of elements : 1095
Stream size : 33.1 KiB (0%)
Title : English-SRT
Language : English
Default : Yes
Forced : No

Text #2
ID : 18
Format : PGS
Muxing mode : zlib
Codec ID : S_HDMV/PGS
Codec ID/Info : Picture based subtitle format used on BDs/HD-DVDs
Duration : 1 h 53 min
Bit rate : 32.3 kb/s
Count of elements : 2416
Stream size : 26.3 MiB (0%)
Title : English-PGS
Language : English
Default : No
Forced : No

Text #3
ID : 19
Format : PGS
Muxing mode : zlib
Codec ID : S_HDMV/PGS
Codec ID/Info : Picture based subtitle format used on BDs/HD-DVDs
Duration : 1 h 53 min
Bit rate : 27.0 kb/s
Count of elements : 2214
Stream size : 22.0 MiB (0%)
Title : French-PGS
Language : French
Default : No
Forced : No

Text #4
ID : 20
Format : PGS
Muxing mode : zlib
Codec ID : S_HDMV/PGS
Codec ID/Info : Picture based subtitle format used on BDs/HD-DVDs
Duration : 1 h 53 min
Bit rate : 24.8 kb/s
Count of elements : 2084
Stream size : 20.2 MiB (0%)
Title : French-PGS
Language : French
Default : No
Forced : No

Text #5
ID : 21
Format : PGS
Muxing mode : zlib
Codec ID : S_HDMV/PGS
Codec ID/Info : Picture based subtitle format used on BDs/HD-DVDs
Duration : 1 h 53 min
Bit rate : 27.4 kb/s
Count of elements : 2048
Stream size : 22.3 MiB (0%)
Title : Spanish-PGS
Language : Spanish
Default : No
Forced : No

Text #6
ID : 22
Format : PGS
Muxing mode : zlib
Codec ID : S_HDMV/PGS
Codec ID/Info : Picture based subtitle format used on BDs/HD-DVDs
Duration : 1 h 53 min
Bit rate : 32.8 kb/s
Count of elements : 2214
Stream size : 26.5 MiB (0%)
Title : German-PGS
Language : German
Default : No
Forced : No

Text #7
ID : 23
Format : PGS
Muxing mode : zlib
Codec ID : S_HDMV/PGS
Codec ID/Info : Picture based subtitle format used on BDs/HD-DVDs
Duration : 1 h 53 min
Bit rate : 28.4 kb/s
Count of elements : 2094
Stream size : 23.0 MiB (0%)
Title : Italian-PGS
Language : Italian
Default : No
Forced : No

Text #8
ID : 24
Format : PGS
Muxing mode : zlib
Codec ID : S_HDMV/PGS
Codec ID/Info : Picture based subtitle format used on BDs/HD-DVDs
Duration : 1 h 53 min
Bit rate : 19.1 kb/s
Count of elements : 2119
Stream size : 15.5 MiB (0%)
Title : Japanese-PGS
Language : Japanese
Default : No
Forced : No

Text #9
ID : 25
Format : PGS
Muxing mode : zlib
Codec ID : S_HDMV/PGS
Codec ID/Info : Picture based subtitle format used on BDs/HD-DVDs
Duration : 1 h 53 min
Bit rate : 24.9 kb/s
Count of elements : 2108
Stream size : 20.2 MiB (0%)
Title : Norwegian-PGS
Language : Norwegian
Default : No
Forced : No

Text #10
ID : 26
Format : PGS
Muxing mode : zlib
Codec ID : S_HDMV/PGS
Codec ID/Info : Picture based subtitle format used on BDs/HD-DVDs
Duration : 1 h 53 min
Bit rate : 28.1 kb/s
Count of elements : 2118
Stream size : 22.7 MiB (0%)
Title : Swedish-PGS
Language : Swedish
Default : No
Forced : No

Text #11
ID : 27
Format : PGS
Muxing mode : zlib
Codec ID : S_HDMV/PGS
Codec ID/Info : Picture based subtitle format used on BDs/HD-DVDs
Duration : 1 h 52 min
Bit rate : 155 b/s
Count of elements : 10
Stream size : 128 KiB (0%)
Title : French-FORCED-PGS
Language : French
Default : No
Forced : No

Text #12
ID : 28
Format : PGS
Muxing mode : zlib
Codec ID : S_HDMV/PGS
Codec ID/Info : Picture based subtitle format used on BDs/HD-DVDs
Duration : 1 h 52 min
Bit rate : 233 b/s
Count of elements : 18
Stream size : 192 KiB (0%)
Title : French-FORCED-PGS
Language : French
Default : No
Forced : No

Text #13
ID : 29
Format : PGS
Muxing mode : zlib
Codec ID : S_HDMV/PGS
Codec ID/Info : Picture based subtitle format used on BDs/HD-DVDs
Duration : 1 h 19 min
Bit rate : 111 b/s
Count of elements : 6
Stream size : 65.1 KiB (0%)
Title : Spanish-FORCED-PGS
Language : Spanish
Default : No
Forced : No

Text #14
ID : 30
Format : PGS
Muxing mode : zlib
Codec ID : S_HDMV/PGS
Codec ID/Info : Picture based subtitle format used on BDs/HD-DVDs
Duration : 21 min 16 s
Bit rate : 909 b/s
Count of elements : 10
Stream size : 142 KiB (0%)
Title : German-FORCED-PGS
Language : German
Default : No
Forced : No

Text #15
ID : 31
Format : PGS
Muxing mode : zlib
Codec ID : S_HDMV/PGS
Codec ID/Info : Picture based subtitle format used on BDs/HD-DVDs
Duration : 1 h 49 min
Bit rate : 257 b/s
Count of elements : 16
Stream size : 206 KiB (0%)
Title : Italian-FORCED-PGS
Language : Italian
Default : No
Forced : No

Text #16
ID : 32
Format : PGS
Muxing mode : zlib
Codec ID : S_HDMV/PGS
Codec ID/Info : Picture based subtitle format used on BDs/HD-DVDs
Duration : 1 h 52 min
Bit rate : 308 b/s
Count of elements : 30
Stream size : 254 KiB (0%)
Title : Japanese-FORCED-PGS
Language : Japanese
Default : No
Forced : No

Menu
00:00:00.000 : en:Chapter 01
00:10:37.595 : en:Chapter 02
00:17:32.885 : en:Chapter 03
00:26:01.935 : en:Chapter 04
00:32:27.403 : en:Chapter 05
00:37:27.912 : en:Chapter 06
00:42:13.364 : en:Chapter 07
00:52:09.876 : en:Chapter 08
01:01:24.305 : en:Chapter 09
01:08:45.037 : en:Chapter 10
01:15:38.575 : en:Chapter 11
01:21:18.748 : en:Chapter 12
01:30:34.720 : en:Chapter 13
01:40:57.342 : en:Chapter 14
01:45:13.056 : en:Chapter 15
01:53:05.487 : en:Chapter 16





1 个附件 售价 大小 下载 时间

Thor.2011.2160p.BluRay.REMUX.HEVC.DTS-HD.MA.TrueHD.7.1.Atmos-FGT.torrent 0 金币 147.93K 1029 次 1月前

#1楼
发帖时间:2019-08-11 01:36:07   |   回复数:3
liyouchai
隐世仙人♂
谢谢楼主分享资源
1月前 #2楼
jokingcheung
一代宗师
谢谢分享
1月前 #3楼
911degrees
隐世仙人♂
非常感谢,谢谢分享
1月前 #4楼
游客组