conanlcg
超级版主

[2013] [欧美] [动作] [4K-原盘] 雷神2:黑暗世界 Thor.The.Dark.World.2013.2160p.BluRay.REMUX.HEVC.DTS-HD.MA.TrueHD.7.1.A

-->

帖子完整标题:雷神2:黑暗世界 Thor.The.Dark.World.2013.2160p.BluRay.REMUX.HEVC.DTS-HD.MA.TrueHD.7.1.Atmos-FGT 50.59GB


[img]https://img1.doubanio.com/view/photo/l_ratio_poster/public/p2156839164.jpg[img]

◎译  名 雷神2:黑暗世界 / Marvel's Thor: The Dark World / Thor 2 / 雷神2:黑暗国度 / 雷神奇侠2:黑暗世界(港) / 雷神托尔2 / 雷神索尔2:黑暗世界(台)
◎片  名 Thor: The Dark World
◎年  代 2013
◎产  地 美国
◎类  别 动作 / 奇幻 / 冒险
◎语  言 英语
◎上映日期 2013-11-08(中国大陆/美国)
◎IMDb评分 6.9/10 from 548286 users
◎IMDb链接 http://www.imdb.com/title/tt1981115
◎豆瓣评分 7.4/10 from 252390 users
◎豆瓣链接 https://movie.douban.com/subject/6560058/
◎片  长 112分钟
◎导  演 阿兰·泰勒 Alan Taylor
◎编  剧 克里斯托弗·约斯特 Christopher Yost / 克里斯托弗·马库斯 Christopher Markus / 斯蒂芬·麦克菲利 Stephen McFeely / 唐·佩恩 Don Payne / 罗伯特·罗达特 Robert Rodat / 斯坦·李 Stan Lee / 拉里·利伯 Larry Lieber / 杰克·科比 Jack Kirby / 沃尔特·西蒙森 Walter Simonson
◎主  演 克里斯·海姆斯沃斯 Chris Hemsworth
      娜塔莉·波特曼 Natalie Portman
      汤姆·希德勒斯顿 Tom Hiddleston
      安东尼·霍普金斯 Anthony Hopkins
      克里斯托弗·埃克莱斯顿 Christopher Eccleston
      杰米·亚历山大 Jaimie Alexander
      扎克瑞·莱维 Zachary Levi
      雷·史蒂文森 Ray Stevenson
      浅野忠信 Tadanobu Asano
      伊德里斯·艾尔巴 Idris Elba
      蕾妮·罗素 Rene Russo
      阿德沃尔·阿吉纽依-艾格拜吉 Adewale Akinnuoye-Agbaje
      凯特·戴琳斯 Kat Dennings
      斯特兰·斯卡斯加德 Stellan Skarsg?rd
      艾丽丝·克里奇 Alice Krige
      克里夫·罗素 Clive Russell
      乔纳森·霍华德 Jonathan Howard
      克里斯·奥多德 Chris O'Dowd
      妲露拉·莱莉 Talulah Riley
      奥菲利亚·拉维邦德 Ophelia Lovibond
      本尼西奥·德尔·托罗 Benicio Del Toro
      斯坦·李 Stan Lee


◎标  签 美国 | 科幻 | Marvel | 漫画改编 | 漫威 | 动作 | 超级英雄 | 2013

◎简  介

  纽约大战后,雷神索尔(克里斯·海姆斯沃斯 Chris Hemsworth 饰)将弟弟洛基(汤姆·希德勒斯顿 Tom Hiddleston 饰)带回仙宫囚禁起来,此外帮助九大国度平定纷争,威名扶摇直上。虽然父王奥丁(安东尼·霍普金斯 Anthony Hopkins 饰)劝其及早即位,但索尔念念不忘地球的美丽女孩简·福斯特(娜塔丽·波特曼 Natalie Portman 饰)。与此同时,简在和黛西及其助手伊安调查某个区域时意外被神秘物质入侵,却也因此重逢索尔,并随其返回仙宫。令人意想不到的是,藏在简体内的物质来自远古的黑暗精灵玛勒基斯(克里斯托弗·埃克莱斯顿 Christopher Eccleston 饰)。在“天体汇聚”的时刻再次到来之际,玛勒基斯企图摧毁九大国度,缔造一个全然黑暗的宇宙。
  藏匿简的仙宫受到重创,而索尔和洛基这对冤家兄弟也不得不联手迎战宿命的强敌……

◎获奖情况

  第23届MTV电影奖(2014)
  MTV电影奖 最佳赤膊表演(提名) 克里斯·海姆斯沃斯
  MTV电影奖 最佳英雄形象(提名) 克里斯·海姆斯沃斯

  第16届美国青少年选择奖(2014)
  最佳科幻/奇幻电影(提名)
  最佳科幻/奇幻电影男演员(提名) 克里斯·海姆斯沃斯
  最佳科幻/奇幻电影女演员(提名) 娜塔莉·波特曼

  第4届豆瓣电影鑫像奖(2014)
  鑫豆单元 最佳科幻/动作片(提名)
  豆渣单元 最渣女演员(外语)(提名) 娜塔莉·波特曼
Video
ID : 1
Format : HEVC
Format/Info : High Efficiency Video Coding
Format profile : Main [email protected]@High
HDR format : SMPTE ST 2086, HDR10 compatible
Codec ID : V_MPEGH/ISO/HEVC
Duration : 1 h 52 min
Bit rate : 46.1 Mb/s
Width : 3 840 pixels
Height : 2 160 pixels
Display aspect ratio : 16:9
Frame rate mode : Constant
Frame rate : 23.976 (24000/1001) FPS
Color space : YUV
Chroma subsampling : 4:2:0 (Type 2)
Bit depth : 10 bits
Bits/(Pixel*Frame) : 0.232
Stream size : 36.1 GiB (71%)
Title : Thor.The.Dark.World.2013.2160p.BluRay.REMUX.HEVC.DTS-HD.MA.TrueHD.7.1.Atmos-FGT
Language : English
Default : No
Forced : No
Color range : Limited
Color primaries : BT.2020
Transfer characteristics : PQ
Matrix coefficients : BT.2020 non-constant
Mastering display color primaries : Display P3
Mastering display luminance : min: 0.0050 cd/m2, max: 4000 cd/m2
Maximum Content Light Level : 600 cd/m2
Maximum Frame-Average Light Level : 600 cd/m2

Audio #1
ID : 2
Format : MLP FBA 16-ch
Format/Info : Meridian Lossless Packing FBA with 16-channel presentation
Commercial name : Dolby TrueHD with Dolby Atmos
Codec ID : A_TRUEHD
Duration : 1 h 52 min
Bit rate mode : Variable
Bit rate : 4 579 kb/s
Maximum bit rate : 8 301 kb/s
Channel(s) : 8 channels
Channel layout : L R C LFE Ls Rs Lb Rb
Sampling rate : 48.0 kHz
Frame rate : 1 200.000 FPS (40 SPF)
Compression mode : Lossless
Stream size : 3.58 GiB (7%)
Title : Thor.The.Dark.World.2013.2160p.BluRay.REMUX.HEVC.DTS-HD.MA.TrueHD.7.1.Atmos-FGT
Language : English
Default : Yes
Forced : No
Number of dynamic objects : 13
Bed channel count : 1 channel
Bed channel configuration : LFE

Audio #2
ID : 3
Format : DTS XLL
Format/Info : Digital Theater Systems
Commercial name : DTS-HD Master Audio
Codec ID : A_DTS
Duration : 1 h 52 min
Bit rate mode : Variable
Bit rate : 4 185 kb/s
Channel(s) : 8 channels
Channel layout : C L R LFE Lb Rb Lss Rss
Sampling rate : 48.0 kHz
Frame rate : 93.750 FPS (512 SPF)
Bit depth : 24 bits
Compression mode : Lossless
Stream size : 3.28 GiB (6%)
Title : Thor.The.Dark.World.2013.2160p.BluRay.REMUX.HEVC.DTS-HD.MA.TrueHD.7.1.Atmos-FGT
Language : English
Default : No
Forced : No

Audio #3
ID : 4
Format : AC-3
Format/Info : Audio Coding 3
Commercial name : Dolby Digital
Codec ID : A_AC3
Duration : 1 h 52 min
Bit rate mode : Constant
Bit rate : 640 kb/s
Channel(s) : 6 channels
Channel layout : L R C LFE Ls Rs
Sampling rate : 48.0 kHz
Frame rate : 31.250 FPS (1536 SPF)
Bit depth : 16 bits
Compression mode : Lossy
Stream size : 513 MiB (1%)
Title : Thor.The.Dark.World.2013.2160p.BluRay.REMUX.HEVC.DTS-HD.MA.TrueHD.7.1.Atmos-FGT
Language : English
Service kind : Complete Main
Default : No
Forced : No

Audio #4
ID : 5
Format : AC-3
Format/Info : Audio Coding 3
Commercial name : Dolby Digital
Codec ID : A_AC3
Duration : 1 h 52 min
Bit rate mode : Constant
Bit rate : 320 kb/s
Channel(s) : 2 channels
Channel layout : L R
Sampling rate : 48.0 kHz
Frame rate : 31.250 FPS (1536 SPF)
Bit depth : 16 bits
Compression mode : Lossy
Stream size : 256 MiB (0%)
Title : Thor.The.Dark.World.2013.2160p.BluRay.REMUX.HEVC.DTS-HD.MA.TrueHD.7.1.Atmos-FGT
Language : English
Service kind : Complete Main
Default : No
Forced : No

Audio #5
ID : 6
Format : AC-3
Format/Info : Audio Coding 3
Commercial name : Dolby Digital
Codec ID : A_AC3
Duration : 1 h 52 min
Bit rate mode : Constant
Bit rate : 640 kb/s
Channel(s) : 6 channels
Channel layout : L R C LFE Ls Rs
Sampling rate : 48.0 kHz
Frame rate : 31.250 FPS (1536 SPF)
Bit depth : 16 bits
Compression mode : Lossy
Stream size : 513 MiB (1%)
Title : Thor.The.Dark.World.2013.2160p.BluRay.REMUX.HEVC.DTS-HD.MA.TrueHD.7.1.Atmos-FGT
Language : French
Service kind : Complete Main
Default : No
Forced : No

Audio #6
ID : 7
Format : E-AC-3
Format/Info : Enhanced AC-3
Commercial name : Dolby Digital Plus
Format profile : Blu-ray Disc
Codec ID : A_EAC3
Duration : 1 h 52 min
Bit rate mode : Constant
Bit rate : 1 024 kb/s
Channel(s) : 8 channels
Channel layout : L R C LFE Ls Rs Lb Rb
Sampling rate : 48.0 kHz
Frame rate : 31.250 FPS (1536 SPF)
Compression mode : Lossy
Stream size : 821 MiB (2%)
Title : Thor.The.Dark.World.2013.2160p.BluRay.REMUX.HEVC.DTS-HD.MA.TrueHD.7.1.Atmos-FGT
Language : French
Service kind : Complete Main
Default : No
Forced : No

Audio #7
ID : 8
Format : AC-3
Format/Info : Audio Coding 3
Commercial name : Dolby Digital
Codec ID : A_AC3
Duration : 1 h 52 min
Bit rate mode : Constant
Bit rate : 576 kb/s
Channel(s) : 6 channels
Channel layout : L R C LFE Ls Rs
Sampling rate : 48.0 kHz
Frame rate : 31.250 FPS (1536 SPF)
Bit depth : 16 bits
Compression mode : Lossy
Stream size : 462 MiB (1%)
Title : Thor.The.Dark.World.2013.2160p.BluRay.REMUX.HEVC.DTS-HD.MA.TrueHD.7.1.Atmos-FGT
Language : French
Service kind : Complete Main
Default : No
Forced : No

Audio #8
ID : 9
Format : E-AC-3
Format/Info : Enhanced AC-3
Commercial name : Dolby Digital Plus
Format profile : Blu-ray Disc
Codec ID : A_EAC3
Duration : 1 h 52 min
Bit rate mode : Constant
Bit rate : 1 024 kb/s
Channel(s) : 8 channels
Channel layout : L R C LFE Ls Rs Lb Rb
Sampling rate : 48.0 kHz
Frame rate : 31.250 FPS (1536 SPF)
Compression mode : Lossy
Stream size : 821 MiB (2%)
Title : Thor.The.Dark.World.2013.2160p.BluRay.REMUX.HEVC.DTS-HD.MA.TrueHD.7.1.Atmos-FGT
Language : Spanish
Service kind : Complete Main
Default : No
Forced : No

Audio #9
ID : 10
Format : AC-3
Format/Info : Audio Coding 3
Commercial name : Dolby Digital
Codec ID : A_AC3
Duration : 1 h 52 min
Bit rate mode : Constant
Bit rate : 576 kb/s
Channel(s) : 6 channels
Channel layout : L R C LFE Ls Rs
Sampling rate : 48.0 kHz
Frame rate : 31.250 FPS (1536 SPF)
Bit depth : 16 bits
Compression mode : Lossy
Stream size : 462 MiB (1%)
Title : Thor.The.Dark.World.2013.2160p.BluRay.REMUX.HEVC.DTS-HD.MA.TrueHD.7.1.Atmos-FGT
Language : Spanish
Service kind : Complete Main
Default : No
Forced : No

Audio #10
ID : 11
Format : E-AC-3
Format/Info : Enhanced AC-3
Commercial name : Dolby Digital Plus
Format profile : Blu-ray Disc
Codec ID : A_EAC3
Duration : 1 h 52 min
Bit rate mode : Constant
Bit rate : 1 024 kb/s
Channel(s) : 8 channels
Channel layout : L R C LFE Ls Rs Lb Rb
Sampling rate : 48.0 kHz
Frame rate : 31.250 FPS (1536 SPF)
Compression mode : Lossy
Stream size : 821 MiB (2%)
Title : Thor.The.Dark.World.2013.2160p.BluRay.REMUX.HEVC.DTS-HD.MA.TrueHD.7.1.Atmos-FGT
Language : German
Service kind : Complete Main
Default : No
Forced : No

Audio #11
ID : 12
Format : AC-3
Format/Info : Audio Coding 3
Commercial name : Dolby Digital
Codec ID : A_AC3
Duration : 1 h 52 min
Bit rate mode : Constant
Bit rate : 576 kb/s
Channel(s) : 6 channels
Channel layout : L R C LFE Ls Rs
Sampling rate : 48.0 kHz
Frame rate : 31.250 FPS (1536 SPF)
Bit depth : 16 bits
Compression mode : Lossy
Stream size : 462 MiB (1%)
Title : Thor.The.Dark.World.2013.2160p.BluRay.REMUX.HEVC.DTS-HD.MA.TrueHD.7.1.Atmos-FGT
Language : German
Service kind : Complete Main
Default : No
Forced : No

Audio #12
ID : 13
Format : E-AC-3
Format/Info : Enhanced AC-3
Commercial name : Dolby Digital Plus
Format profile : Blu-ray Disc
Codec ID : A_EAC3
Duration : 1 h 52 min
Bit rate mode : Constant
Bit rate : 1 024 kb/s
Channel(s) : 8 channels
Channel layout : L R C LFE Ls Rs Lb Rb
Sampling rate : 48.0 kHz
Frame rate : 31.250 FPS (1536 SPF)
Compression mode : Lossy
Stream size : 821 MiB (2%)
Title : Thor.The.Dark.World.2013.2160p.BluRay.REMUX.HEVC.DTS-HD.MA.TrueHD.7.1.Atmos-FGT
Language : Italian
Service kind : Complete Main
Default : No
Forced : No

Audio #13
ID : 14
Format : AC-3
Format/Info : Audio Coding 3
Commercial name : Dolby Digital
Codec ID : A_AC3
Duration : 1 h 52 min
Bit rate mode : Constant
Bit rate : 576 kb/s
Channel(s) : 6 channels
Channel layout : L R C LFE Ls Rs
Sampling rate : 48.0 kHz
Frame rate : 31.250 FPS (1536 SPF)
Bit depth : 16 bits
Compression mode : Lossy
Stream size : 462 MiB (1%)
Title : Thor.The.Dark.World.2013.2160p.BluRay.REMUX.HEVC.DTS-HD.MA.TrueHD.7.1.Atmos-FGT
Language : Italian
Service kind : Complete Main
Default : No
Forced : No

Audio #14
ID : 15
Format : E-AC-3
Format/Info : Enhanced AC-3
Commercial name : Dolby Digital Plus
Format profile : Blu-ray Disc
Codec ID : A_EAC3
Duration : 1 h 52 min
Bit rate mode : Constant
Bit rate : 1 024 kb/s
Channel(s) : 8 channels
Channel layout : L R C LFE Ls Rs Lb Rb
Sampling rate : 48.0 kHz
Frame rate : 31.250 FPS (1536 SPF)
Compression mode : Lossy
Stream size : 821 MiB (2%)
Title : Thor.The.Dark.World.2013.2160p.BluRay.REMUX.HEVC.DTS-HD.MA.TrueHD.7.1.Atmos-FGT
Language : Japanese
Service kind : Complete Main
Default : No
Forced : No

Audio #15
ID : 16
Format : AC-3
Format/Info : Audio Coding 3
Commercial name : Dolby Digital
Codec ID : A_AC3
Duration : 1 h 52 min
Bit rate mode : Constant
Bit rate : 576 kb/s
Channel(s) : 6 channels
Channel layout : L R C LFE Ls Rs
Sampling rate : 48.0 kHz
Frame rate : 31.250 FPS (1536 SPF)
Bit depth : 16 bits
Compression mode : Lossy
Stream size : 462 MiB (1%)
Title : Thor.The.Dark.World.2013.2160p.BluRay.REMUX.HEVC.DTS-HD.MA.TrueHD.7.1.Atmos-FGT
Language : Japanese
Service kind : Complete Main
Default : No
Forced : No

Text #1
ID : 17
Format : UTF-8
Codec ID : S_TEXT/UTF8
Codec ID/Info : UTF-8 Plain Text
Duration : 1 h 13 min
Bit rate : 1 b/s
Count of elements : 30
Stream size : 995 Bytes (0%)
Title : English-FORCED-SRT
Language : English
Default : Yes
Forced : Yes

Text #2
ID : 18
Format : UTF-8
Codec ID : S_TEXT/UTF8
Codec ID/Info : UTF-8 Plain Text
Duration : 1 h 45 min
Bit rate : 41 b/s
Count of elements : 1103
Stream size : 31.6 KiB (0%)
Title : English-SRT
Language : English
Default : No
Forced : No

Text #3
ID : 19
Format : PGS
Muxing mode : zlib
Codec ID : S_HDMV/PGS
Codec ID/Info : Picture based subtitle format used on BDs/HD-DVDs
Duration : 1 h 51 min
Bit rate : 34.1 kb/s
Count of elements : 2757
Stream size : 27.1 MiB (0%)
Title : English-PGS
Language : English
Default : No
Forced : No

Text #4
ID : 20
Format : PGS
Muxing mode : zlib
Codec ID : S_HDMV/PGS
Codec ID/Info : Picture based subtitle format used on BDs/HD-DVDs
Duration : 1 h 51 min
Bit rate : 28.8 kb/s
Count of elements : 2222
Stream size : 23.0 MiB (0%)
Title : French-PGS
Language : French
Default : No
Forced : No

Text #5
ID : 21
Format : PGS
Muxing mode : zlib
Codec ID : S_HDMV/PGS
Codec ID/Info : Picture based subtitle format used on BDs/HD-DVDs
Duration : 1 h 51 min
Bit rate : 23.9 kb/s
Count of elements : 2124
Stream size : 19.1 MiB (0%)
Title : French-PGS
Language : French
Default : No
Forced : No

Text #6
ID : 22
Format : PGS
Muxing mode : zlib
Codec ID : S_HDMV/PGS
Codec ID/Info : Picture based subtitle format used on BDs/HD-DVDs
Duration : 1 h 51 min
Bit rate : 28.5 kb/s
Count of elements : 2164
Stream size : 22.7 MiB (0%)
Title : Spanish-PGS
Language : Spanish
Default : No
Forced : No

Text #7
ID : 23
Format : PGS
Muxing mode : zlib
Codec ID : S_HDMV/PGS
Codec ID/Info : Picture based subtitle format used on BDs/HD-DVDs
Duration : 1 h 45 min
Bit rate : 27.6 kb/s
Count of elements : 2020
Stream size : 20.7 MiB (0%)
Title : German-PGS
Language : German
Default : No
Forced : No

Text #8
ID : 24
Format : PGS
Muxing mode : zlib
Codec ID : S_HDMV/PGS
Codec ID/Info : Picture based subtitle format used on BDs/HD-DVDs
Duration : 1 h 51 min
Bit rate : 29.2 kb/s
Count of elements : 2164
Stream size : 23.3 MiB (0%)
Title : Italian-PGS
Language : Italian
Default : No
Forced : No

Text #9
ID : 25
Format : PGS
Muxing mode : zlib
Codec ID : S_HDMV/PGS
Codec ID/Info : Picture based subtitle format used on BDs/HD-DVDs
Duration : 1 h 51 min
Bit rate : 15.9 kb/s
Count of elements : 1934
Stream size : 12.6 MiB (0%)
Title : Japanese-PGS
Language : Japanese
Default : No
Forced : No

Text #10
ID : 26
Format : PGS
Muxing mode : zlib
Codec ID : S_HDMV/PGS
Codec ID/Info : Picture based subtitle format used on BDs/HD-DVDs
Duration : 1 h 51 min
Bit rate : 26.7 kb/s
Count of elements : 2156
Stream size : 21.3 MiB (0%)
Title : Norwegian-PGS
Language : Norwegian
Default : No
Forced : No

Text #11
ID : 27
Format : PGS
Muxing mode : zlib
Codec ID : S_HDMV/PGS
Codec ID/Info : Picture based subtitle format used on BDs/HD-DVDs
Duration : 1 h 51 min
Bit rate : 24.2 kb/s
Count of elements : 1412
Stream size : 19.3 MiB (0%)
Title : Swedish-PGS
Language : Swedish
Default : No
Forced : No

Text #12
ID : 28
Format : PGS
Muxing mode : zlib
Codec ID : S_HDMV/PGS
Codec ID/Info : Picture based subtitle format used on BDs/HD-DVDs
Duration : 1 h 13 min
Bit rate : 562 b/s
Count of elements : 56
Stream size : 305 KiB (0%)
Title : English-FORCED-PGS
Language : English
Default : No
Forced : No

Text #13
ID : 29
Format : PGS
Muxing mode : zlib
Codec ID : S_HDMV/PGS
Codec ID/Info : Picture based subtitle format used on BDs/HD-DVDs
Duration : 1 h 50 min
Bit rate : 663 b/s
Count of elements : 74
Stream size : 538 KiB (0%)
Title : French-FORCED-PGS
Language : French
Default : No
Forced : No

Text #14
ID : 30
Format : PGS
Muxing mode : zlib
Codec ID : S_HDMV/PGS
Codec ID/Info : Picture based subtitle format used on BDs/HD-DVDs
Duration : 1 h 50 min
Bit rate : 461 b/s
Count of elements : 64
Stream size : 375 KiB (0%)
Title : French-FORCED-PGS
Language : French
Default : No
Forced : No

Text #15
ID : 31
Format : PGS
Muxing mode : zlib
Codec ID : S_HDMV/PGS
Codec ID/Info : Picture based subtitle format used on BDs/HD-DVDs
Duration : 1 h 50 min
Bit rate : 488 b/s
Count of elements : 64
Stream size : 396 KiB (0%)
Title : Spanish-FORCED-PGS
Language : Spanish
Default : No
Forced : No

Text #16
ID : 32
Format : PGS
Muxing mode : zlib
Codec ID : S_HDMV/PGS
Codec ID/Info : Picture based subtitle format used on BDs/HD-DVDs
Duration : 1 h 42 min
Bit rate : 482 b/s
Count of elements : 60
Stream size : 363 KiB (0%)
Title : German-FORCED-PGS
Language : German
Default : No
Forced : No

Text #17
ID : 33
Format : PGS
Muxing mode : zlib
Codec ID : S_HDMV/PGS
Codec ID/Info : Picture based subtitle format used on BDs/HD-DVDs
Duration : 1 h 13 min
Bit rate : 637 b/s
Count of elements : 58
Stream size : 345 KiB (0%)
Title : Italian-FORCED-PGS
Language : Italian
Default : No
Forced : No

Text #18
ID : 34
Format : PGS
Muxing mode : zlib
Codec ID : S_HDMV/PGS
Codec ID/Info : Picture based subtitle format used on BDs/HD-DVDs
Duration : 1 h 50 min
Bit rate : 711 b/s
Count of elements : 72
Stream size : 577 KiB (0%)
Title : Japanese-FORCED-PGS
Language : Japanese
Default : No
Forced : No

Menu
00:00:00.000 : en:Chapter 01
00:06:13.664 : en:Chapter 02
00:13:05.201 : en:Chapter 03
00:18:40.994 : en:Chapter 04
00:24:56.703 : en:Chapter 05
00:29:07.495 : en:Chapter 06
00:41:33.365 : en:Chapter 07
00:49:40.227 : en:Chapter 08
00:55:56.144 : en:Chapter 09
01:00:08.855 : en:Chapter 10
01:08:12.671 : en:Chapter 11
01:12:39.897 : en:Chapter 12
01:21:34.180 : en:Chapter 13
01:26:22.093 : en:Chapter 14
01:33:58.799 : en:Chapter 15
01:38:31.363 : en:Chapter 16
01:41:49.228 : en:Chapter 17





1 个附件 售价 大小 下载 时间

Thor.The.Dark.World.2013.2160p.BluRay.REMUX.HEVC.DTS-HD.MA.TrueHD.7.1.Atmos-FGT.torrent 0 金币 127.06K 1246 次 2月前

#1楼
发帖时间:2019-08-11 01:33:47   |   回复数:3
liyouchai
隐世仙人♂
谢谢楼主分享资源
2月前 #2楼
jokingcheung
一代宗师
谢谢分享
2月前 #3楼
911degrees
隐世仙人♂
非常感谢,谢谢分享
2月前 #4楼
游客组