conanlcg
超级版主

[2013] [其他] [动作] [4K-原盘] 钢铁侠3/钢铁人3 Iron.Man.3.2013.2160p.US.BluRay.REMUX.HEVC.DTS-HD.MA.TrueHD.7.1.Atmos-

-->

帖子完整标题:钢铁侠3/钢铁人3 Iron.Man.3.2013.2160p.US.BluRay.REMUX.HEVC.DTS-HD.MA.TrueHD.7.1.Atmos-FGT 55.40GB


[img]https://img1.doubanio.com/view/photo/l_ratio_poster/public/p1955027201.jpg[img]

◎译  名 钢铁侠3 / 钢铁人3(台) / 铁人3 / 铁甲奇侠3(港)
◎片  名 Iron Man 3
◎年  代 2013
◎产  地 美国 / 中国大陆
◎类  别 动作 / 科幻
◎语  言 英语 / 汉语普通话
◎上映日期 2013-04-18(伦敦首映) / 2013-05-01(中国大陆) / 2013-05-03(美国)
◎IMDb评分 7.2/10 from 700775 users
◎IMDb链接 http://www.imdb.com/title/tt1300854
◎豆瓣评分 7.8/10 from 331644 users
◎豆瓣链接 https://movie.douban.com/subject/3231742/
◎片  长 134分钟(中国大陆)
◎导  演 沙恩·布莱克 Shane Black
◎编  剧 沙恩·布莱克 Shane Black / 德鲁·皮尔斯 Drew Pearce / 斯坦·李 Stan Lee / 唐·赫克 Don Heck / 拉里·利伯 Larry Lieber / 杰克·科比 Jack Kirby
◎主  演 小罗伯特·唐尼 Robert Downey Jr.
      盖·皮尔斯 Guy Pearce
      格温妮斯·帕特洛 Gwyneth Paltrow
      本·金斯利 Ben Kingsley
      唐·钱德尔 Don Cheadle
      保罗·贝坦尼 Paul Bettany
      丽贝卡·豪尔 Rebecca Hall
      乔恩·费儒 Jon Favreau
      威廉姆·赛德勒 William Sadler
      詹姆斯·戴尔 James Badge Dale
      伊芳·齐玛 Yvonne Zima
      泰·辛普金斯 Ty Simpkins
      阿什利·汉弥尔顿 Ashley Hamilton
      王学圻 Xueqi Wang
      范冰冰 Bingbing Fan


◎标  签 科幻 | 钢铁侠 | 美国 | 超级英雄 | 动作 | MARVEL | 2013 | 漫画改编

◎简  介

  自纽约事件以来,托尼·斯塔克(小罗伯特·唐尼 Robert Downey Jr. 饰)为前所未有的焦虑症所困扰。他疯狂投入钢铁侠升级版的研发,为此废寝忘食,甚至忽略了女友佩珀·波茨(格温妮斯·帕特洛 Gwyneth Paltrow 饰)的感受。与此同时,臭名昭著的恐怖头目曼达林(本·金斯利 Ben Kingsley 饰)制造了一连串的爆炸袭击事件,托尼当年最忠诚的保镖即在最近的一次袭击中身负重伤。未过多久,托尼、佩珀以及曾与他有过一面之缘的女植物学家玛雅(丽贝卡·豪尔 Rebecca Hall 饰)在家中遭到猛烈的炮火袭击,几乎丧命,而这一切似乎都与22年前那名偶然邂逅的科学家阿尔德里奇·基连(盖·皮尔斯 Guy Pearce 饰)及其终极生物的研究有关。
  即使有精密先进的铠甲护身,也无法排遣发自心底的焦虑。被击碎一切的托尼,如何穿越来自地狱的熊熊烈火……

◎获奖情况

  第86届奥斯卡金像奖(2014)
  最佳视觉效果(提名) 盖伊·威廉斯 / 克里斯托弗·汤森 / Erik Nash / 丹尼尔·萨迪克

  第23届MTV电影奖(2014)
  MTV电影奖 最佳客串表演(提名) 琼·里弗斯
  MTV电影奖 最佳英雄形象(提名) 小罗伯特·唐尼

  第61届美国音效剪辑协会奖(2014)
  金卷轴奖 最佳电影音效剪辑(提名) John T. Cucci / Charlie Campagna / 丹·奥康奈尔 / Tim Walston / Alan Rankin / Karen Vassar / 安德鲁·克里斯托法罗 / Ann Scibelli / Shannon Mills / 马克·P·施特金格尔

  第12届美国视觉效果协会奖(2014)
  最佳特效电影视觉效果(提名) 布莱恩·吉尔 / 盖伊·威廉斯 / Mark G. Soper / 克里斯托弗·汤森
  最佳真人电影CG背景(提名) John Stevenson-Galvin
  最佳电影虚拟摄影(提名) Thelvin Cabezas
  最佳电影视觉效果合成(提名) Justin van der Lek / Stefano Trivelli

  第50届美国声音效果协会奖(2014)
  真人电影最佳音效(提名) Joel Iwataki / Mike Prestwood Smith / Michael Keller

  第19届美国评论家选择电影奖(2014)
  最佳动作片(提名)
  动作片最佳男主角(提名) 小罗伯特·唐尼
  动作片最佳女主角(提名) 格温妮斯·帕特洛
  最佳视觉效果(提名)

  第17届好莱坞电影奖(2013)
  年度电影(提名) 沙恩·布莱克

  第15届美国青少年选择奖(2013)
  最佳动作片
  最佳动作片男演员 小罗伯特·唐尼
  最佳动作片女演员(提名) 格温妮斯·帕特洛
  最佳科幻/奇幻电影(提名)
  最佳科幻/奇幻电影男演员(提名) 小罗伯特·唐尼
  最佳科幻/奇幻电影女演员(提名) 格温妮斯·帕特洛
  最佳电影反派(提名) 本·金斯利
  最佳银幕拍档(提名) 小罗伯特·唐尼 / 唐·钱德尔

  第4届豆瓣电影鑫像奖(2014)
  鑫豆单元 最佳科幻/动作片(提名)
Video
ID : 1
Format : HEVC
Format/Info : High Efficiency Video Coding
Format profile : Main [email protected]@High
HDR format : SMPTE ST 2086, HDR10 compatible
Codec ID : V_MPEGH/ISO/HEVC
Duration : 2 h 10 min
Bit rate : 44.1 Mb/s
Width : 3 840 pixels
Height : 2 160 pixels
Display aspect ratio : 16:9
Frame rate mode : Constant
Frame rate : 23.976 (24000/1001) FPS
Color space : YUV
Chroma subsampling : 4:2:0 (Type 2)
Bit depth : 10 bits
Bits/(Pixel*Frame) : 0.222
Stream size : 40.2 GiB (73%)
Title : Iron.Man.3.2013.2160p.US.BluRay.REMUX.HEVC.DTS-HD.MA.TrueHD.7.1.Atmos-FGT
Language : English
Default : No
Forced : No
Color range : Limited
Color primaries : BT.2020
Transfer characteristics : PQ
Matrix coefficients : BT.2020 non-constant
Mastering display color primaries : Display P3
Mastering display luminance : min: 0.0050 cd/m2, max: 4000 cd/m2
Maximum Content Light Level : 572 cd/m2
Maximum Frame-Average Light Level : 565 cd/m2

Audio #1
ID : 2
Format : MLP FBA 16-ch
Format/Info : Meridian Lossless Packing FBA with 16-channel presentation
Commercial name : Dolby TrueHD with Dolby Atmos
Codec ID : A_TRUEHD
Duration : 2 h 10 min
Bit rate mode : Variable
Bit rate : 4 826 kb/s
Maximum bit rate : 7 887 kb/s
Channel(s) : 8 channels
Channel layout : L R C LFE Ls Rs Lb Rb
Sampling rate : 48.0 kHz
Frame rate : 1 200.000 FPS (40 SPF)
Compression mode : Lossless
Stream size : 4.40 GiB (8%)
Title : Iron.Man.3.2013.2160p.US.BluRay.REMUX.HEVC.DTS-HD.MA.TrueHD.7.1.Atmos-FGT
Language : English
Default : Yes
Forced : No
Number of dynamic objects : 13
Bed channel count : 1 channel
Bed channel configuration : LFE

Audio #2
ID : 3
Format : DTS XLL
Format/Info : Digital Theater Systems
Commercial name : DTS-HD Master Audio
Codec ID : A_DTS
Duration : 2 h 10 min
Bit rate mode : Variable
Bit rate : 3 597 kb/s
Channel(s) : 8 channels
Channel layout : C L R LFE Lb Rb Lss Rss
Sampling rate : 48.0 kHz
Frame rate : 93.750 FPS (512 SPF)
Bit depth : 24 bits
Compression mode : Lossless
Stream size : 3.28 GiB (6%)
Title : Iron.Man.3.2013.2160p.US.BluRay.REMUX.HEVC.DTS-HD.MA.TrueHD.7.1.Atmos-FGT
Language : English
Default : No
Forced : No

Audio #3
ID : 4
Format : AC-3
Format/Info : Audio Coding 3
Commercial name : Dolby Digital
Codec ID : A_AC3
Duration : 2 h 10 min
Bit rate mode : Constant
Bit rate : 640 kb/s
Channel(s) : 6 channels
Channel layout : L R C LFE Ls Rs
Sampling rate : 48.0 kHz
Frame rate : 31.250 FPS (1536 SPF)
Bit depth : 16 bits
Compression mode : Lossy
Stream size : 597 MiB (1%)
Title : Iron.Man.3.2013.2160p.US.BluRay.REMUX.HEVC.DTS-HD.MA.TrueHD.7.1.Atmos-FGT
Language : English
Service kind : Complete Main
Default : No
Forced : No

Audio #4
ID : 5
Format : AC-3
Format/Info : Audio Coding 3
Commercial name : Dolby Digital
Codec ID : A_AC3
Duration : 2 h 10 min
Bit rate mode : Constant
Bit rate : 320 kb/s
Channel(s) : 2 channels
Channel layout : L R
Sampling rate : 48.0 kHz
Frame rate : 31.250 FPS (1536 SPF)
Bit depth : 16 bits
Compression mode : Lossy
Stream size : 299 MiB (1%)
Title : Iron.Man.3.2013.2160p.US.BluRay.REMUX.HEVC.DTS-HD.MA.TrueHD.7.1.Atmos-FGT
Language : English
Service kind : Complete Main
Default : No
Forced : No

Audio #5
ID : 6
Format : AC-3
Format/Info : Audio Coding 3
Commercial name : Dolby Digital
Codec ID : A_AC3
Duration : 2 h 10 min
Bit rate mode : Constant
Bit rate : 640 kb/s
Channel(s) : 6 channels
Channel layout : L R C LFE Ls Rs
Sampling rate : 48.0 kHz
Frame rate : 31.250 FPS (1536 SPF)
Bit depth : 16 bits
Compression mode : Lossy
Stream size : 597 MiB (1%)
Title : Iron.Man.3.2013.2160p.US.BluRay.REMUX.HEVC.DTS-HD.MA.TrueHD.7.1.Atmos-FGT
Language : French
Service kind : Complete Main
Default : No
Forced : No

Audio #6
ID : 7
Format : E-AC-3
Format/Info : Enhanced AC-3
Commercial name : Dolby Digital Plus
Format profile : Blu-ray Disc
Codec ID : A_EAC3
Duration : 2 h 10 min
Bit rate mode : Constant
Bit rate : 1 024 kb/s
Channel(s) : 8 channels
Channel layout : L R C LFE Ls Rs Lb Rb
Sampling rate : 48.0 kHz
Frame rate : 31.250 FPS (1536 SPF)
Compression mode : Lossy
Stream size : 956 MiB (2%)
Title : Iron.Man.3.2013.2160p.US.BluRay.REMUX.HEVC.DTS-HD.MA.TrueHD.7.1.Atmos-FGT
Language : French
Service kind : Complete Main
Default : No
Forced : No

Audio #7
ID : 8
Format : AC-3
Format/Info : Audio Coding 3
Commercial name : Dolby Digital
Codec ID : A_AC3
Duration : 2 h 10 min
Bit rate mode : Constant
Bit rate : 576 kb/s
Channel(s) : 6 channels
Channel layout : L R C LFE Ls Rs
Sampling rate : 48.0 kHz
Frame rate : 31.250 FPS (1536 SPF)
Bit depth : 16 bits
Compression mode : Lossy
Stream size : 538 MiB (1%)
Title : Iron.Man.3.2013.2160p.US.BluRay.REMUX.HEVC.DTS-HD.MA.TrueHD.7.1.Atmos-FGT
Language : French
Service kind : Complete Main
Default : No
Forced : No

Audio #8
ID : 9
Format : E-AC-3
Format/Info : Enhanced AC-3
Commercial name : Dolby Digital Plus
Format profile : Blu-ray Disc
Codec ID : A_EAC3
Duration : 2 h 10 min
Bit rate mode : Constant
Bit rate : 1 024 kb/s
Channel(s) : 8 channels
Channel layout : L R C LFE Ls Rs Lb Rb
Sampling rate : 48.0 kHz
Frame rate : 31.250 FPS (1536 SPF)
Compression mode : Lossy
Stream size : 956 MiB (2%)
Title : Iron.Man.3.2013.2160p.US.BluRay.REMUX.HEVC.DTS-HD.MA.TrueHD.7.1.Atmos-FGT
Language : Spanish
Service kind : Complete Main
Default : No
Forced : No

Audio #9
ID : 10
Format : AC-3
Format/Info : Audio Coding 3
Commercial name : Dolby Digital
Codec ID : A_AC3
Duration : 2 h 10 min
Bit rate mode : Constant
Bit rate : 576 kb/s
Channel(s) : 6 channels
Channel layout : L R C LFE Ls Rs
Sampling rate : 48.0 kHz
Frame rate : 31.250 FPS (1536 SPF)
Bit depth : 16 bits
Compression mode : Lossy
Stream size : 538 MiB (1%)
Title : Iron.Man.3.2013.2160p.US.BluRay.REMUX.HEVC.DTS-HD.MA.TrueHD.7.1.Atmos-FGT
Language : Spanish
Service kind : Complete Main
Default : No
Forced : No

Audio #10
ID : 11
Format : E-AC-3
Format/Info : Enhanced AC-3
Commercial name : Dolby Digital Plus
Format profile : Blu-ray Disc
Codec ID : A_EAC3
Duration : 2 h 10 min
Bit rate mode : Constant
Bit rate : 1 024 kb/s
Channel(s) : 8 channels
Channel layout : L R C LFE Ls Rs Lb Rb
Sampling rate : 48.0 kHz
Frame rate : 31.250 FPS (1536 SPF)
Compression mode : Lossy
Stream size : 956 MiB (2%)
Title : Iron.Man.3.2013.2160p.US.BluRay.REMUX.HEVC.DTS-HD.MA.TrueHD.7.1.Atmos-FGT
Language : Italian
Service kind : Complete Main
Default : No
Forced : No

Audio #11
ID : 12
Format : AC-3
Format/Info : Audio Coding 3
Commercial name : Dolby Digital
Codec ID : A_AC3
Duration : 2 h 10 min
Bit rate mode : Constant
Bit rate : 576 kb/s
Channel(s) : 6 channels
Channel layout : L R C LFE Ls Rs
Sampling rate : 48.0 kHz
Frame rate : 31.250 FPS (1536 SPF)
Bit depth : 16 bits
Compression mode : Lossy
Stream size : 538 MiB (1%)
Title : Iron.Man.3.2013.2160p.US.BluRay.REMUX.HEVC.DTS-HD.MA.TrueHD.7.1.Atmos-FGT
Language : Italian
Service kind : Complete Main
Default : No
Forced : No

Audio #12
ID : 13
Format : E-AC-3
Format/Info : Enhanced AC-3
Commercial name : Dolby Digital Plus
Format profile : Blu-ray Disc
Codec ID : A_EAC3
Duration : 2 h 10 min
Bit rate mode : Constant
Bit rate : 1 024 kb/s
Channel(s) : 8 channels
Channel layout : L R C LFE Ls Rs Lb Rb
Sampling rate : 48.0 kHz
Frame rate : 31.250 FPS (1536 SPF)
Compression mode : Lossy
Stream size : 956 MiB (2%)
Title : Iron.Man.3.2013.2160p.US.BluRay.REMUX.HEVC.DTS-HD.MA.TrueHD.7.1.Atmos-FGT
Language : Japanese
Service kind : Complete Main
Default : No
Forced : No

Audio #13
ID : 14
Format : AC-3
Format/Info : Audio Coding 3
Commercial name : Dolby Digital
Codec ID : A_AC3
Duration : 2 h 10 min
Bit rate mode : Constant
Bit rate : 576 kb/s
Channel(s) : 6 channels
Channel layout : L R C LFE Ls Rs
Sampling rate : 48.0 kHz
Frame rate : 31.250 FPS (1536 SPF)
Bit depth : 16 bits
Compression mode : Lossy
Stream size : 538 MiB (1%)
Title : Iron.Man.3.2013.2160p.US.BluRay.REMUX.HEVC.DTS-HD.MA.TrueHD.7.1.Atmos-FGT
Language : Japanese
Service kind : Complete Main
Default : No
Forced : No

Text #1
ID : 15
Format : UTF-8
Codec ID : S_TEXT/UTF8
Codec ID/Info : UTF-8 Plain Text
Duration : 2 h 10 min
Bit rate : 58 b/s
Count of elements : 1733
Stream size : 56.0 KiB (0%)
Title : English-SRT
Language : English
Default : Yes
Forced : No

Text #2
ID : 16
Format : PGS
Muxing mode : zlib
Codec ID : S_HDMV/PGS
Codec ID/Info : Picture based subtitle format used on BDs/HD-DVDs
Duration : 2 h 10 min
Bit rate : 53.2 kb/s
Count of elements : 4336
Stream size : 49.4 MiB (0%)
Title : English-PGS
Language : English
Default : No
Forced : No

Text #3
ID : 17
Format : PGS
Muxing mode : zlib
Codec ID : S_HDMV/PGS
Codec ID/Info : Picture based subtitle format used on BDs/HD-DVDs
Duration : 2 h 10 min
Bit rate : 42.6 kb/s
Count of elements : 3544
Stream size : 39.7 MiB (0%)
Title : French-PGS
Language : French
Default : No
Forced : No

Text #4
ID : 18
Format : PGS
Muxing mode : zlib
Codec ID : S_HDMV/PGS
Codec ID/Info : Picture based subtitle format used on BDs/HD-DVDs
Duration : 2 h 10 min
Bit rate : 34.3 kb/s
Count of elements : 3414
Stream size : 31.9 MiB (0%)
Title : French-PGS
Language : French
Default : No
Forced : No

Text #5
ID : 19
Format : PGS
Muxing mode : zlib
Codec ID : S_HDMV/PGS
Codec ID/Info : Picture based subtitle format used on BDs/HD-DVDs
Duration : 2 h 10 min
Bit rate : 43.6 kb/s
Count of elements : 3458
Stream size : 40.7 MiB (0%)
Title : Spanish-PGS
Language : Spanish
Default : No
Forced : No

Text #6
ID : 20
Format : PGS
Muxing mode : zlib
Codec ID : S_HDMV/PGS
Codec ID/Info : Picture based subtitle format used on BDs/HD-DVDs
Duration : 2 h 10 min
Bit rate : 41.5 kb/s
Count of elements : 3448
Stream size : 38.7 MiB (0%)
Title : Italian-PGS
Language : Italian
Default : No
Forced : No

Text #7
ID : 21
Format : PGS
Muxing mode : zlib
Codec ID : S_HDMV/PGS
Codec ID/Info : Picture based subtitle format used on BDs/HD-DVDs
Duration : 2 h 10 min
Bit rate : 20.0 kb/s
Count of elements : 2892
Stream size : 18.7 MiB (0%)
Title : Japanese-PGS
Language : Japanese
Default : No
Forced : No

Text #8
ID : 22
Format : PGS
Muxing mode : zlib
Codec ID : S_HDMV/PGS
Codec ID/Info : Picture based subtitle format used on BDs/HD-DVDs
Duration : 2 h 10 min
Bit rate : 38.9 kb/s
Count of elements : 3454
Stream size : 36.3 MiB (0%)
Title : Norwegian-PGS
Language : Norwegian
Default : No
Forced : No

Text #9
ID : 23
Format : PGS
Muxing mode : zlib
Codec ID : S_HDMV/PGS
Codec ID/Info : Picture based subtitle format used on BDs/HD-DVDs
Duration : 2 h 10 min
Bit rate : 30.9 kb/s
Count of elements : 2098
Stream size : 28.8 MiB (0%)
Title : Swedish-PGS
Language : Swedish
Default : No
Forced : No

Text #10
ID : 24
Format : PGS
Muxing mode : zlib
Codec ID : S_HDMV/PGS
Codec ID/Info : Picture based subtitle format used on BDs/HD-DVDs
Duration : 1 h 8 min
Bit rate : 85 b/s
Count of elements : 4
Stream size : 42.5 KiB (0%)
Title : French-FORCED-PGS
Language : French
Default : No
Forced : No

Text #11
ID : 25
Format : PGS
Muxing mode : zlib
Codec ID : S_HDMV/PGS
Codec ID/Info : Picture based subtitle format used on BDs/HD-DVDs
Duration : 2 h 9 min
Bit rate : 97 b/s
Count of elements : 10
Stream size : 92.6 KiB (0%)
Title : French-FORCED-PGS
Language : French
Default : No
Forced : No

Text #12
ID : 26
Format : PGS
Muxing mode : zlib
Codec ID : S_HDMV/PGS
Codec ID/Info : Picture based subtitle format used on BDs/HD-DVDs
Duration : 2 h 1 min
Bit rate : 87 b/s
Count of elements : 8
Stream size : 77.4 KiB (0%)
Title : Spanish-FORCED-PGS
Language : Spanish
Default : No
Forced : No

Text #13
ID : 27
Format : PGS
Muxing mode : zlib
Codec ID : S_HDMV/PGS
Codec ID/Info : Picture based subtitle format used on BDs/HD-DVDs
Duration : 4 min 3 s
Bit rate : 1 290 b/s
Count of elements : 6
Stream size : 38.3 KiB (0%)
Title : Italian-FORCED-PGS
Language : Italian
Default : No
Forced : No

Text #14
ID : 28
Format : PGS
Muxing mode : zlib
Codec ID : S_HDMV/PGS
Codec ID/Info : Picture based subtitle format used on BDs/HD-DVDs
Duration : 2 h 9 min
Bit rate : 89 b/s
Count of elements : 12
Stream size : 85.2 KiB (0%)
Title : Japanese-FORCED-PGS
Language : Japanese
Default : No
Forced : No

Menu
00:00:00.000 : en:Chapter 01
00:04:52.500 : en:Chapter 02
00:07:55.308 : en:Chapter 03
00:12:12.773 : en:Chapter 04
00:19:04.101 : en:Chapter 05
00:23:47.884 : en:Chapter 06
00:29:47.452 : en:Chapter 07
00:39:46.092 : en:Chapter 08
00:45:56.044 : en:Chapter 09
00:59:19.639 : en:Chapter 10
01:01:56.671 : en:Chapter 11
01:09:24.118 : en:Chapter 12
01:18:41.842 : en:Chapter 13
01:23:52.944 : en:Chapter 14
01:37:55.619 : en:Chapter 15
01:56:18.680 : en:Chapter 16
01:59:38.921 : en:Chapter 17





1 个附件 售价 大小 下载 时间

Iron.Man.3.2013.2160p.US.BluRay.REMUX.HEVC.DTS-HD.MA.TrueHD.7.1.Atmos-FGT.torrent 0 金币 139.06K 1225 次 2月前

#1楼
发帖时间:2019-08-10 05:12:23   |   回复数:3
jokingcheung
一代宗师
谢谢分享
2月前 #2楼
911degrees
隐世仙人♂
非常感谢,谢谢分享
2月前 #3楼
liyouchai
隐世仙人♂
谢谢楼主分享资源
2月前 #4楼
游客组