conanlcg
超级版主

[2011] [日本] [其他] [BD-1080P] 追逐繁星的孩子 Children.Who.Chase.Lost.Voices.2011.PROPER.1080p.BluRay.x264-RedBlade 7.

-->

帖子完整标题:追逐繁星的孩子 Children.Who.Chase.Lost.Voices.2011.PROPER.1080p.BluRay.x264-RedBlade 7.95GB


[img]https://img1.doubanio.com/view/photo/l_ratio_poster/public/p1957577564.jpg[img]

◎译  名 追逐繁星的孩子 / Children who Chase Lost Voices from Deep Below
◎片  名 星を追う子ども
◎年  代 2011
◎产  地 日本
◎类  别 动画 / 奇幻 / 冒险
◎语  言 日语
◎上映日期 2011-05-07(日本)
◎IMDb评分 7.2/10 from 11799 users
◎IMDb链接 http://www.imdb.com/title/tt1839494
◎豆瓣评分 7.3/10 from 47593 users
◎豆瓣链接 https://movie.douban.com/subject/4246125/
◎片  长 116分钟
◎导  演 新海诚 Makoto Shinkai
◎编  剧 新海诚 Makoto Shinkai
◎主  演 金元寿子 Hisako Kanemoto
      入野自由 Miyu Irino
      井上和彦 Kazuhiko Inoue
      岛本须美 Sumi Shimamoto
      竹内顺子 Junko Takeuchi
      折笠富美子 Fumiko Orikasa
      大木民夫 Tamio ?ki
      金田秋
      洞内爱
      堀龙沙耶
      土屋真由美
      斋藤智美
      又村奈绪美 Matamura Naomi
      长滨满里子 Nagahama Mariko
      石桥美佳 Ishibashi Mika
      绿川博子
      本城雄太郎 Honjou Yuutarou
      下崎纮史 Shimozaki Horoshi
      增田俊树 Toshiki Masuda
      大薮重树
      本道崇
      藤原和博
      日高里菜 Rina Hidaka
      伊藤加奈惠 Kanae Ito
      滨田贤二 Kenji Hamada
      胜仓经子
      寺崎裕香 Yuka Terasaki
      水野理纱 Risa Mizuno
      稻村优奈 Y?na Inamura
      前田刚 Takeshi Maeda


◎标  签 新海诚 | 动画 | 日本 | 日本动画 | 新海誠 | 动漫 | 2011 | 日本电影

◎简  介

  在一片宁静的小山村,少女渡濑明日菜(金元寿子 配音)时常站在山顶,用父亲留给她的神秘矿石作二极管,收听着来自外面世界的美妙音乐。在一次放学途中,明日菜遭到一头怪兽的袭击,关键时刻她被俊美少年瞬(入野自由 配音)救下,纯洁的友谊在少男少女之间开始萌芽。明日菜体味着友谊的甜蜜,却不知瞬在某天悄然离开人世。新来的男老师森崎龙司(井上和彦 配音)为孩子们讲述了死国的传说,明日菜这才意识到瞬正是来自另一个世界雅戈泰的人。森崎真实身份隶属某个神秘组织,他和明日菜的心中都有想要复活的人,于是经过一波三折,他们随着瞬的弟弟心一同来到了传说中的雅戈泰。
  在这个绝美而凄惶的国度,他们展开了似乎永无止境的旅程……
Video
ID : 1
Format : AVC
Format/Info : Advanced Video Codec
Format profile : [email protected]
Format settings : CABAC / 4 Ref Frames
Format settings, CABAC : Yes
Format settings, Reference frames : 4 frames
Codec ID : V_MPEG4/ISO/AVC
Duration : 1 h 56 min
Bit rate : 6 775 kb/s
Width : 1 920 pixels
Height : 1 080 pixels
Display aspect ratio : 16:9
Frame rate mode : Constant
Frame rate : 23.976 (24000/1001) FPS
Color space : YUV
Chroma subsampling : 4:2:0
Bit depth : 8 bits
Scan type : Progressive
Bits/(Pixel*Frame) : 0.136
Stream size : 5.34 GiB (67%)
Writing library : x264 core 129 r2245 bc13772
Encoding settings : cabac=1 / ref=4 / deblock=1:0:0 / analyse=0x3:0x113 / me=umh / subme=7 / psy=1 / psy_rd=1.00:0.00 / mixed_ref=1 / me_range=16 / chroma_me=1 / trellis=1 / 8x8dct=1 / cqm=0 / deadzone=21,11 / fast_pskip=1 / chroma_qp_offset=-2 / threads=6 / lookahead_threads=1 / sliced_threads=0 / nr=0 / decimate=1 / interlaced=0 / bluray_compat=0 / constrained_intra=0 / bframes=3 / b_pyramid=2 / b_adapt=1 / b_bias=0 / direct=1 / weightb=1 / open_gop=0 / weightp=2 / keyint=240 / keyint_min=23 / scenecut=40 / intra_refresh=0 / rc_lookahead=40 / rc=2pass / mbtree=1 / bitrate=6775 / ratetol=1.0 / qcomp=0.60 / qpmin=10 / qpmax=51 / qpstep=4 / cplxblur=20.0 / qblur=0.5 / ip_ratio=1.40 / aq=1:1.00
Language : English
Default : Yes
Forced : No

Audio #1
ID : 2
Format : DTS
Format/Info : Digital Theater Systems
Codec ID : A_DTS
Duration : 1 h 56 min
Bit rate mode : Constant
Bit rate : 1 509 kb/s
Channel(s) : 6 channels
Channel layout : C L R Ls Rs LFE
Sampling rate : 48.0 kHz
Frame rate : 93.750 FPS (512 SPF)
Bit depth : 24 bits
Compression mode : Lossy
Stream size : 1.22 GiB (15%)
Language : Japanese
Default : Yes
Forced : No

Audio #2
ID : 3
Format : DTS
Format/Info : Digital Theater Systems
Codec ID : A_DTS
Duration : 1 h 56 min
Bit rate mode : Constant
Bit rate : 1 509 kb/s
Channel(s) : 6 channels
Channel layout : C L R Ls Rs LFE
Sampling rate : 48.0 kHz
Frame rate : 93.750 FPS (512 SPF)
Bit depth : 24 bits
Compression mode : Lossy
Stream size : 1.22 GiB (15%)
Language : English
Default : No
Forced : No

Text
ID : 4
Format : UTF-8
Codec ID : S_TEXT/UTF8
Codec ID/Info : UTF-8 Plain Text
Language : English
Default : Yes
Forced : No





1 个附件 售价 大小 下载 时间

Children.Who.Chase.Lost.Voices.2011.PROPER.1080p.BluRay.x264-RedBlade.torrent 0 金币 40.29K 924 次 1月前

#1楼
发帖时间:2019-08-08 18:05:44   |   回复数:2
liyouchai
隐世仙人♂
谢谢楼主分享资源
1月前 #2楼
911degrees
隐世仙人♂
非常感谢,谢谢分享
1月前 #3楼
游客组