conanlcg
超级版主

[2014] [欧美] [其他] [BD-1080P] 所有伤痛 All.This.Mayhem.2014.1080p.BluRay.x264-OBiTS 7.65GB

-->

帖子完整标题:所有伤痛 All.This.Mayhem.2014.1080p.BluRay.x264-OBiTS 7.65GB




◎译  名 所有伤痛
◎片  名 All This Mayhem
◎年  代 2014
◎产  地 英国
◎类  别 纪录片
◎语  言 英语 / 法语 / 西班牙语
◎上映日期 2014-06-05(澳大利亚)
◎IMDb评分 7.9/10 from 2973 users
◎IMDb链接 http://www.imdb.com/title/tt2938416
◎豆瓣评分 0/10 from 0 users
◎豆瓣链接 https://movie.douban.com/subject/25872154/
◎片  长 103分钟
◎导  演 Eddie Martin
◎主  演 Tas Pappas
      Ben Pappas


◎标  签 纪录片 | 2010s | 英国 | 2014 | 审过 | vice | BDISO | 5

◎简  介

  影片记录了一对兄弟从墨尔本街头的小混混成长为滑板高手的过程。脾气暴躁的哥哥Tas Pappas很早就辍学,并加入美国的滑板圈。他最初身无分文,晚上只能睡在街边,但事情很快有了转机。天生热爱滑板运动的弟弟Ben前来投奔他,兄弟二人的滑板技术逐渐为人肯定,然而就在此时事情再次发生转机。导演在影片中使用了大量的历史影像展示滑板这项运动中所蕴涵的魔力,这部电影既是对所谓“成功”的一次真实呈现,也是对兄弟情谊的真切赞叹。
Eddie Martin的导演处女作Jisoe(2005)曾于St Kilda电影节获得观众选择奖,其2008年的作品则曾获得AFI Awards最佳记录长片的提名。(via.好戏网)

Video
ID : 1
Format : AVC
Format/Info : Advanced Video Codec
Format profile : [email protected]
Format settings, CABAC : Yes
Format settings, ReFrames : 4 frames
Codec ID : V_MPEG4/ISO/AVC
Duration : 1h 43mn
Bit rate : 9 019 Kbps
Width : 1 920 pixels
Height : 1 040 pixels
Display aspect ratio : 1.85:1
Frame rate mode : Constant
Frame rate : 23.976 (24000/1001) fps
Color space : YUV
Chroma subsampling : 4:2:0
Bit depth : 8 bits
Scan type : Progressive
Bits/(Pixel*Frame) : 0.188
Stream size : 6.55 GiB (86%)
Writing library : x264 core 148 r2744 b97ae06
Encoding settings : cabac=1 / ref=4 / deblock=1:-3:-3 / analyse=0x3:0x113 / me=umh / subme=8 / psy=1 / psy_rd=1.00:0.00 / mixed_ref=1 / me_range=16 / chroma_me=1 / trellis=1 / 8x8dct=1 / cqm=0 / deadzone=21,11 / fast_pskip=1 / chroma_qp_offset=-2 / threads=12 / lookahead_threads=2 / sliced_threads=0 / nr=0 / decimate=1 / interlaced=0 / bluray_compat=0 / constrained_intra=0 / bframes=3 / b_pyramid=2 / b_adapt=2 / b_bias=0 / direct=3 / weightb=1 / open_gop=0 / weightp=2 / keyint=240 / keyint_min=24 / scenecut=40 / intra_refresh=0 / rc_lookahead=50 / rc=2pass / mbtree=1 / bitrate=9019 / ratetol=1.0 / qcomp=0.60 / qpmin=0 / qpmax=69 / qpstep=4 / cplxblur=20.0 / qblur=0.5 / vbv_maxrate=62500 / vbv_bufsize=78125 / nal_hrd=none / filler=0 / ip_ratio=1.40 / aq=1:1.00
Language : English
Default : Yes
Forced : No

Audio
ID : 2
Format : DTS
Format/Info : Digital Theater Systems
Mode : 16
Format settings, Endianness : Big
Codec ID : A_DTS
Duration : 1h 43mn
Bit rate mode : Constant
Bit rate : 1 509 Kbps
Channel(s) : 6 channels
Channel positions : Front: L C R, Side: L R, LFE
Sampling rate : 48.0 KHz
Frame rate : 93.750 fps (512 spf)
Bit depth : 24 bits
Compression mode : Lossy
Stream size : 1.10 GiB (14%)
Language : English
Default : Yes
Forced : No

Text
ID : 3
Format : UTF-8
Codec ID : S_TEXT/UTF8
Codec ID/Info : UTF-8 Plain Text
Duration : 1h 38mn
Bit rate : 91 bps
Count of elements : 1705
Stream size : 66.5 KiB (0%)
Language : English
Default : No
Forced : No

Menu
00:00:00.000 : en:00:00:00.000
00:07:45.882 : en:00:07:45.882
00:13:46.284 : en:00:13:46.284
00:21:27.828 : en:00:21:27.828
00:30:17.899 : en:00:30:17.899
00:37:38.673 : en:00:37:38.673
00:45:27.516 : en:00:45:27.516
00:51:00.474 : en:00:51:00.474
01:03:03.697 : en:01:03:03.697
01:08:45.872 : en:01:08:45.872
01:15:02.498 : en:01:15:02.498
01:25:55.359 : en:01:25:55.359
01:30:59.788 : en:01:30:59.788
01:39:45.938 : en:01:39:45.938





1 个附件 售价 大小 下载 时间

All.This.Mayhem.2014.1080p.BluRay.x264-OBiTS.torrent 0 金币 77.14K 350 次 1月前

#1楼
发帖时间:2019-07-31 06:23:18   |   回复数:2
911degrees
隐世仙人♂
非常感谢,谢谢分享
1月前 #2楼
liyouchai
隐世仙人♂
谢谢楼主分享资源
1月前 #3楼
游客组