conanlcg
超级版主

[2011] [欧美] [其他] [BD-1080P] 不可击败/不败 Undefeated.2011.1080p.BluRay.x264-PSYCHD 8.74GB

-->

帖子完整标题:不可击败/不败 Undefeated.2011.1080p.BluRay.x264-PSYCHD 8.74GB




◎译  名 不可击败 / 不败
◎片  名 Undefeated
◎年  代 2011
◎产  地 美国
◎类  别 纪录片
◎语  言 英语
◎上映日期 2011-03-13
◎IMDb评分 7.8/10 from 6452 users
◎IMDb链接 http://www.imdb.com/title/tt1860355
◎豆瓣评分 8.3/10 from 634 users
◎豆瓣链接 https://movie.douban.com/subject/6771730/
◎片  长 113分钟
◎导  演 Dan Lindsay / TJ Martin
◎主  演 Montrail 'Money' Brown
      O.C. Brown
      Bill Courtney


◎标  签 纪录片 | 美国 | 体育 | 第84届奥斯卡 | 2011 | 美国电影 | 奥斯卡 | 奥斯卡最佳纪录长片提名

◎简  介

  In 2004, football coach Bill Courtney took on the daunting job of coaching at Manassas High School in inner-city Memphis, where players are more likely to wind up in jail than in college. The Manassas Tigers were perennial whipping boys of the league, bereft of victories, funds, and morale. Courtney recruited a group of freshmen to turn things around, and in their first season they got creamed. But with each passing year they won more games and more respect. At the start of the season in 2009, Courtney set a goal: to win the first play-off game in the school’s 110-year history.

◎获奖情况

  第84届奥斯卡金像奖(2012)
  最佳纪录长片 T.J. Martin / Daniel Lindsay / Rich Middlemas

  第17届美国评论家选择电影奖(2012)
  最佳纪录片(提名)

  第20届东南影评人协会奖(2011)
  南方精神奖(提名)



Video
ID : 1
Format : AVC
Format/Info : Advanced Video Codec
Format profile : [email protected]
Format settings, CABAC : Yes
Format settings, ReFrames : 4 frames
Codec ID : V_MPEG4/ISO/AVC
Duration : 1h 53mn
Bit rate : 9 537 Kbps
Width : 1 920 pixels
Height : 1 080 pixels
Display aspect ratio : 16:9
Frame rate mode : Constant
Frame rate : 23.976 (24000/1001) fps
Color space : YUV
Chroma subsampling : 4:2:0
Bit depth : 8 bits
Scan type : Progressive
Bits/(Pixel*Frame) : 0.192
Stream size : 7.38 GiB (84%)
Writing library : x264 core 129 r2230 1cffe9f
Encoding settings : cabac=1 / ref=4 / deblock=1:0:0 / analyse=0x3:0x113 / me=umh / subme=8 / psy=1 / psy_rd=1.00:0.00 / mixed_ref=1 / me_range=16 / chroma_me=1 / trellis=1 / 8x8dct=1 / cqm=0 / deadzone=21,11 / fast_pskip=1 / chroma_qp_offset=-2 / threads=12 / lookahead_threads=2 / sliced_threads=0 / nr=0 / decimate=1 / interlaced=0 / bluray_compat=0 / constrained_intra=0 / bframes=3 / b_pyramid=2 / b_adapt=2 / b_bias=0 / direct=3 / weightb=1 / open_gop=0 / weightp=2 / keyint=240 / keyint_min=24 / scenecut=40 / intra_refresh=0 / rc_lookahead=50 / rc=2pass / mbtree=1 / bitrate=9537 / ratetol=1.0 / qcomp=0.60 / qpmin=0 / qpmax=69 / qpstep=4 / cplxblur=20.0 / qblur=0.5 / ip_ratio=1.40 / aq=1:1.00
Language : English
Default : Yes
Forced : No

Audio
ID : 2
Format : DTS
Format/Info : Digital Theater Systems
Mode : 16
Format settings, Endianness : Big
Codec ID : A_DTS
Duration : 1h 53mn
Bit rate mode : Constant
Bit rate : 1 509 Kbps
Channel(s) : 6 channels
Channel positions : Front: L C R, Side: L R, LFE
Sampling rate : 48.0 KHz
Frame rate : 93.750 fps (512 spf)
Bit depth : 24 bits
Compression mode : Lossy
Stream size : 1.19 GiB (14%)
Language : English
Default : Yes
Forced : No

Text
ID : 3
Format : UTF-8
Codec ID : S_TEXT/UTF8
Codec ID/Info : UTF-8 Plain Text
Language : English
Default : No
Forced : No

Menu
00:00:00.000 : en:00:00:00.000
00:04:29.102 : en:00:04:29.102
00:10:00.892 : en:00:10:00.892
00:17:27.296 : en:00:17:27.296
00:24:25.255 : en:00:24:25.255
00:30:11.810 : en:00:30:11.810
00:37:33.710 : en:00:37:33.710
00:44:19.866 : en:00:44:19.866
00:50:23.020 : en:00:50:23.020
00:56:15.789 : en:00:56:15.789
01:01:17.299 : en:01:01:17.299
01:08:13.131 : en:01:08:13.131
01:15:01.914 : en:01:15:01.914
01:21:51.698 : en:01:21:51.698
01:26:41.655 : en:01:26:41.655
01:33:36.486 : en:01:33:36.486
01:40:56.634 : en:01:40:56.634
01:49:03.579 : en:01:49:03.579





1 个附件 售价 大小 下载 时间

Undefeated.2011.1080p.BluRay.x264-PSYCHD.torrent 0 金币 88.04K 343 次 1月前

#1楼
发帖时间:2019-07-30 22:43:54   |   回复数:2
liyouchai
隐世仙人♂
谢谢楼主分享资源
1月前 #2楼
911degrees
隐世仙人♂
非常感谢,谢谢分享
1月前 #3楼
游客组