conanlcg
超级版主

[2011] [欧美] [剧情] [BD-1080P] 恐龙的行军/恐龙大迁徙 March.Of.The.Dinosaurs.2011.1080p.BluRay.x264.DTS-FGT 5.46GB

-->

帖子完整标题:恐龙的行军/恐龙大迁徙 March.Of.The.Dinosaurs.2011.1080p.BluRay.x264.DTS-FGT 5.46GB




◎译  名 恐龙的行军 / 恐龙大迁徙
◎片  名 March of the Dinosaurs
◎年  代 2011
◎产  地 英国
◎类  别 剧情 / 动画 / 纪录片
◎语  言 英语
◎IMDb评分 6.6/10 from 435 users
◎IMDb链接 http://www.imdb.com/title/tt1737591
◎豆瓣评分 7.1/10 from 285 users
◎豆瓣链接 https://movie.douban.com/subject/6601259/
◎片  长 89分钟
◎导  演 马修·汤姆森 Matthew Thompson
◎主  演 斯蒂芬·弗雷 Stephen Fry


◎标  签 纪录片 | 恐龙 | 动画 | 英国 | 记录 | 2011 | 科技 | 欧美

◎简  介

  这是一部关于恐龙的科教记录片,
北极:7千万年前。一个极端的世界。夏季的阳光变成了24小時严寒的夜晚。恐龙们不得不做出选择,勇敢的向南迁徙以寻找阳光。一段充满了暴风雪,火山爆发和致命狩猎者的危险旅程,一个年轻的埃德蒙頓龙开始了他的第一个千里迁移.
片中令人惊叹的CG动画 和精心构建的数码世界,可以說是真正的恐龙电影演变,令人震撼.
The Arctic: 70 million years ago. It is a world of extremes. Tropical summers of 24hr sunlight are replaced by freezing winters of continuous night. The remarkable dinosaurs that lived under the Northern Lights had to make a choice, brave the winter or head south to find the sun.
Join Scar, a young Edmontosaurus embarking on his first thousand-mile migration. It is a journey for survival that is fraught with danger; blizzards, volcanic eruptions and deadly predators lie ahead. Meanwhile Patch, a juvenile Troodon, left alone in the North, must learn to survive in one of the harshest environments the Earth has ever known.
This epic feature-length adventure portrays an incredible polar odyssey that actually happened but has never
been witnessed before. Based on recent fossil evidence blasted out of the ice around the North Pole, the makers
of ''Walking with Dinosaurs'' and ''Prehistoric Park'' are delighted to introduce you to an all-new cast of dinosaurs, from feathered tyrannosaurs to giant marine predators. Featuring stunning animation and a painstakingly recreated digital world, it can truly be said that the dinosaur film has evolved.

Video
ID : 1
Format : AVC
Format/Info : Advanced Video Codec
Format profile : [email protected]
Format settings, CABAC : Yes
Format settings, ReFrames : 4 frames
Codec ID : V_MPEG4/ISO/AVC
Duration : 1h 29mn
Bit rate : 7 093 Kbps
Nominal bit rate : 8 008 Kbps
Width : 1 920 pixels
Height : 1 080 pixels
Display aspect ratio : 16:9
Frame rate mode : Constant
Frame rate : 23.976 (24000/1001) fps
Original frame rate : 23.976 (23976/1000) fps
Color space : YUV
Chroma subsampling : 4:2:0
Bit depth : 8 bits
Scan type : Progressive
Bits/(Pixel*Frame) : 0.143
Stream size : 4.41 GiB (81%)
Writing library : x264 core 115 r2008 4c552d8
Encoding settings : cabac=1 / ref=4 / deblock=1:0:0 / analyse=0x3:0x133 / me=umh / subme=7 / psy=1 / psy_rd=1.00:0.00 / mixed_ref=1 / me_range=16 / chroma_me=1 / trellis=1 / 8x8dct=1 / cqm=0 / deadzone=21,11 / fast_pskip=0 / chroma_qp_offset=-2 / threads=12 / sliced_threads=0 / nr=0 / decimate=1 / interlaced=0 / bluray_compat=0 / constrained_intra=0 / bframes=3 / b_pyramid=2 / b_adapt=1 / b_bias=0 / direct=1 / weightb=1 / open_gop=0 / weightp=2 / keyint=250 / keyint_min=23 / scenecut=40 / intra_refresh=0 / rc_lookahead=40 / rc=2pass / mbtree=1 / bitrate=8008 / ratetol=1.0 / qcomp=0.60 / qpmin=0 / qpmax=69 / qpstep=4 / cplxblur=20.0 / qblur=0.5 / ip_ratio=1.40 / aq=1:1.00
Language : English
Default : No
Forced : No

Audio
ID : 2
Format : DTS
Format/Info : Digital Theater Systems
Mode : 16
Format settings, Endianness : Big
Codec ID : A_DTS
Duration : 1h 29mn
Bit rate mode : Constant
Bit rate : 1 509 Kbps
Channel(s) : 6 channels
Channel positions : Front: L C R, Side: L R, LFE
Sampling rate : 48.0 KHz
Frame rate : 93.750 fps (512 spf)
Bit depth : 24 bits
Compression mode : Lossy
Stream size : 961 MiB (17%)
Language : English
Default : No
Forced : No





1 个附件 售价 大小 下载 时间

March.Of.The.Dinosaurs.2011.1080p.BluRay.x264.DTS-FGT.torrent 0 金币 55.18K 826 次 1月前

#1楼
发帖时间:2019-07-29 14:23:25   |   回复数:5
blue23
隐世仙人♂
感谢楼主分享
1月前 #2楼
kola13
一派掌门
感谢分享
1月前 #3楼
911degrees
隐世仙人♂
非常感谢,谢谢分享
1月前 #4楼
liyouchai
隐世仙人♂
谢谢楼主分享资源
1月前 #5楼
lejayzhang
武林高手
感谢楼主分享!!!
1月前 #6楼
游客组