conanlcg
超级版主

[2011] [欧美] [剧情] [BD-1080P] 拉瑞·克劳/拉瑞克劳 Larry.Crowne.2011.1080p.BluRay.x264-iNFAMOUS 6.56GB

-->

帖子完整标题:拉瑞·克劳/拉瑞克劳 Larry.Crowne.2011.1080p.BluRay.x264-iNFAMOUS 6.56GB




◎译  名 拉瑞·克劳 / 拉瑞克劳 / 拉里·克劳 / 来佬奇缘 / 爱情速可达
◎片  名 Larry Crowne
◎年  代 2011
◎产  地 美国
◎类  别 剧情 / 喜剧
◎语  言 英语
◎上映日期 2011-07-01
◎IMDb评分 6.1/10 from 58946 users
◎IMDb链接 http://www.imdb.com/title/tt1583420
◎豆瓣评分 6.6/10 from 6392 users
◎豆瓣链接 https://movie.douban.com/subject/4727962/
◎片  长 98分钟
◎导  演 汤姆·汉克斯 Tom Hanks
◎编  剧 汤姆·汉克斯 Tom Hanks / 妮娅·瓦达拉斯 Nia Vardalos
◎主  演 汤姆·汉克斯 Tom Hanks
      朱莉娅·罗伯茨 Julia Roberts
      塔拉吉·P·汉森 Taraji P. Henson
      布莱恩·科兰斯顿 Bryan Cranston
      Gugu Mbatha-Raw
      拉米·马雷克 Rami Malek
      维尔摩·瓦尔德拉玛 Wilmer Valderrama
      Maria Canals-Barrera
      帕姆·格里尔 Pam Grier


◎标  签 TomHanks | JuliaRoberts | 美国 | 爱情 | 喜剧 | 汤姆·汉克斯 | 美国电影 | 2011

◎简  介

  《拉瑞·克劳》由汤姆·汉克斯自导自演。
海军退伍之后,拉瑞(汤姆·汉克斯 Tom Hanks 饰)勤勤恳恳在卖场工作了20几年。他为人和善,几乎从不发脾气,是明星工作人员,顾客喜欢他,老板也对他颇为赏识。可是裁员风暴还是让他失去了工作。空闲的他向当地社区里的大学报了名,并很快就和各色人等结成了好朋友。有流浪汉、有贫民窟的孩子,大家都希望到这里改善自己的生活。在公共演讲的课堂上,拉瑞出乎意料地爱上了自己的老师梅赛德斯(朱莉娅·罗伯茨 Julia Roberts 饰)。但她是一个已婚女子,并且她把自己的精力都放在了教学上,无暇顾及学生的爱慕。现在,一切难题似乎都到了拉瑞的身上......

Video
ID : 1
Format : AVC
Format/Info : Advanced Video Codec
Format profile : [email protected]
Format settings, CABAC : Yes
Format settings, ReFrames : 5 frames
Muxing mode : Header stripping
Codec ID : V_MPEG4/ISO/AVC
Duration : 1 h 38 min
Bit rate : 8 756 kb/s
Width : 1 920 pixels
Height : 800 pixels
Display aspect ratio : 2.40:1
Frame rate mode : Constant
Frame rate : 23.976 FPS
Color space : YUV
Chroma subsampling : 4:2:0
Bit depth : 8 bits
Scan type : Progressive
Bits/(Pixel*Frame) : 0.238
Stream size : 5.90 GiB (90%)
Writing library : x264 core 119 r2106 07efeb4
Encoding settings : cabac=1 / ref=5 / deblock=1:0:0 / analyse=0x3:0x133 / me=umh / subme=7 / psy=1 / psy_rd=1.00:0.00 / mixed_ref=1 / me_range=16 / chroma_me=1 / trellis=1 / 8x8dct=1 / cqm=0 / deadzone=21,11 / fast_pskip=1 / chroma_qp_offset=-2 / threads=12 / sliced_threads=0 / nr=0 / decimate=1 / interlaced=0 / bluray_compat=0 / constrained_intra=0 / bframes=3 / b_pyramid=2 / b_adapt=2 / b_bias=0 / direct=3 / weightb=1 / open_gop=0 / weightp=2 / keyint=250 / keyint_min=23 / scenecut=40 / intra_refresh=0 / rc=2pass / mbtree=0 / bitrate=8756 / ratetol=1.0 / qcomp=0.60 / qpmin=0 / qpmax=69 / qpstep=4 / cplxblur=20.0 / qblur=0.5 / ip_ratio=1.40 / pb_ratio=1.30 / aq=1:1.00
Language : English
Default : Yes
Forced : No

Audio
ID : 2
Format : DTS
Format/Info : Digital Theater Systems
Mode : 16
Format settings, Endianness : Big
Muxing mode : Header stripping
Codec ID : A_DTS
Duration : 1 h 38 min
Bit rate mode : Constant
Bit rate : 768 kb/s
Channel(s) : 6 channels
Channel positions : Front: L C R, Side: L R, LFE
Sampling rate : 48.0 kHz
Frame rate : 93.750 FPS (512 spf)
Bit depth : 24 bits
Compression mode : Lossy
Stream size : 542 MiB (8%)
Language : English
Default : Yes
Forced : No

Menu
00:00:00.000 : en:00:00:00.000
00:07:17.020 : en:00:07:17.020
00:15:29.262 : en:00:15:29.262
00:24:31.178 : en:00:24:31.178
00:33:43.188 : en:00:33:43.188
00:42:30.423 : en:00:42:30.423
00:50:33.405 : en:00:50:33.405
00:58:35.846 : en:00:58:35.846
01:05:12.992 : en:01:05:12.992
01:14:06.442 : en:01:14:06.442
01:25:03.724 : en:01:25:03.724
01:30:54.324 : en:01:30:54.324





1 个附件 售价 大小 下载 时间

Larry.Crowne.2011.1080p.BluRay.x264-iNFAMOUS.torrent 0 金币 66.09K 462 次 2月前

#1楼
发帖时间:2019-06-15 12:13:01   |   回复数:3
liyouchai
隐世仙人♂
谢谢楼主分享资源
2月前 #2楼
kola13
一派掌门
感谢分享
2月前 #3楼
911degrees
隐世仙人♂
非常感谢,谢谢分享
2月前 #4楼
游客组