conanlcg
超级版主

[2011] [欧美] [剧情] [BD-1080P] 在劫难逃/喋血新世纪 Abduction.2011.1080p.BluRay.x264-SPARKS 7.64GB

-->

帖子完整标题:在劫难逃/喋血新世纪 Abduction.2011.1080p.BluRay.x264-SPARKS 7.64GB




◎译  名 在劫难逃 / 喋血新世纪(港) / 绑架
◎片  名 Abduction
◎年  代 2011
◎产  地 美国
◎类  别 剧情 / 动作 / 悬疑 / 惊悚
◎语  言 英语
◎上映日期 2011-09-23(美国) / 2012-07-27(中国大陆)
◎IMDb评分 5.1/10 from 72561 users
◎IMDb链接 http://www.imdb.com/title/tt1600195
◎豆瓣评分 5.7/10 from 15468 users
◎豆瓣链接 https://movie.douban.com/subject/4308001/
◎片  长 106分钟(美国)
◎导  演 约翰·辛格顿 John Singleton
◎编  剧 1321506
◎主  演 泰勒·洛特纳 Taylor Lautner
      莉莉·柯林斯 Lily Collins
      阿尔弗雷德·莫里纳 Alfred Molina
      西格妮·韦弗 Sigourney Weaver
      迈克尔·恩奎斯特 Michael Nyqvist
      詹森·艾萨克 Jason Isaacs
      玛丽亚·贝罗 Maria Bello
      丹泽尔·惠特克 Denzel Whitaker


◎标  签 动作 | 美国 | 悬疑 | 特工 | 2011 | 剧情 | 绑架 | 爱情

◎简  介

  年轻人内森(泰勒·洛特纳 Taylor Lautner 饰)拥有一个看上去颇为完美的家庭,从小他生活在一个幸福的环境当中,不过自懂事起,内森总觉得自己过着形同虚设的生活,直到有一天他无意在失踪人口的网页里看到有人在寻找自己,盯着显示器里自己幼年的照片,内森才 明白自己朝夕相处的“双亲”,竟然另有特殊身份,内森这才明白原来20多年来,自己一直活在一个精心编织的谎言当中。
内森准备查明真相,他清楚自己所谓的“父母”根本信不过,于是他只能将这一切告诉邻居凯伦(莉莉·柯林斯 Lily Collins 饰)。正当内森和凯伦想搞清楚这是怎么一回事时,却意外的遭遇了职业杀手的追杀,他的“父母”在自己的眼前被害,警察把他当成凶手来追捕,于是内森和凯伦只能开始了惊心动魄的逃亡生涯,而他也在逃亡当中,离真相越来越近……

◎获奖情况

  第32届金酸莓奖(2012)
  最差男主角(提名) 泰勒·洛特纳

  第14届美国青少年选择奖(2012)
  最佳动作片
  最佳动作片男演员 泰勒·洛特纳



Video
ID : 1
Format : AVC
Format/Info : Advanced Video Codec
Format profile : [email protected]
Format settings : CABAC / 5 Ref Frames
Format settings, CABAC : Yes
Format settings, ReFrames : 5 frames
Muxing mode : Header stripping
Codec ID : V_MPEG4/ISO/AVC
Duration : 1 h 45 min
Bit rate : 8 820 kb/s
Width : 1 920 pixels
Height : 800 pixels
Display aspect ratio : 2.40:1
Frame rate mode : Constant
Frame rate : 23.976 FPS
Color space : YUV
Chroma subsampling : 4:2:0
Bit depth : 8 bits
Scan type : Progressive
Bits/(Pixel*Frame) : 0.239
Stream size : 6.37 GiB (83%)
Writing library : x264 core 120 r2120 0c7dab9
Encoding settings : cabac=1 / ref=5 / deblock=1:0:0 / analyse=0x3:0x133 / me=umh / subme=7 / psy=1 / psy_rd=1.00:0.00 / mixed_ref=1 / me_range=16 / chroma_me=1 / trellis=1 / 8x8dct=1 / cqm=0 / deadzone=21,11 / fast_pskip=0 / chroma_qp_offset=-2 / threads=12 / sliced_threads=0 / nr=0 / decimate=1 / interlaced=0 / bluray_compat=0 / constrained_intra=0 / bframes=3 / b_pyramid=2 / b_adapt=1 / b_bias=0 / direct=1 / weightb=1 / open_gop=0 / weightp=2 / keyint=250 / keyint_min=23 / scenecut=40 / intra_refresh=0 / rc_lookahead=40 / rc=2pass / mbtree=1 / bitrate=8820 / ratetol=1.0 / qcomp=0.60 / qpmin=0 / qpmax=69 / qpstep=4 / cplxblur=20.0 / qblur=0.5 / ip_ratio=1.40 / aq=1:1.00
Language : English
Default : Yes
Forced : No

Audio
ID : 2
Format : DTS
Format/Info : Digital Theater Systems
Muxing mode : Header stripping
Codec ID : A_DTS
Duration : 1 h 45 min
Bit rate mode : Constant
Bit rate : 1 509 kb/s
Channel(s) : 6 channels
Channel positions : Front: L C R, Side: L R, LFE
Sampling rate : 48.0 kHz
Frame rate : 93.750 FPS (512 SPF)
Bit depth : 24 bits
Compression mode : Lossy
Stream size : 1.12 GiB (15%)
Language : English
Default : Yes
Forced : No

Menu
00:00:00.000 : en:00:00:00.000
00:10:02.727 : en:00:10:02.727
00:16:57.099 : en:00:16:57.099
00:21:46.972 : en:00:21:46.972
00:27:36.363 : en:00:27:36.363
00:32:41.668 : en:00:32:41.668
00:39:50.263 : en:00:39:50.263
00:49:16.954 : en:00:49:16.954
00:53:47.682 : en:00:53:47.682
00:57:47.881 : en:00:57:47.881
01:07:16.407 : en:01:07:16.407
01:12:23.172 : en:01:12:23.172
01:19:39.941 : en:01:19:39.941
01:23:16.241 : en:01:23:16.241
01:29:43.377 : en:01:29:43.377
01:36:32.077 : en:01:36:32.077





1 个附件 售价 大小 下载 时间

Hide.And.Seek.2005.1080p.BluRay.x264-BDiSC.torrent 0 金币 38.71K 399 次 3月前

#1楼
发帖时间:2019-06-12 12:35:24   |   回复数:3
911degrees
隐世仙人♂
非常感谢,谢谢分享
3月前 #2楼
liyouchai
隐世仙人♂
谢谢楼主分享资源
3月前 #3楼
pokuan909
武林高手
非常感谢,谢谢分享
3月前 #4楼
游客组