conanlcg
超级版主

[2011] [其他] [惊悚] [BD-1080P] 杀手的挽歌 Requiem.for.a.Killer.2011.1080p.BluRay.x264-REGRET 6.57GB

-->

帖子完整标题:杀手的挽歌 Requiem.for.a.Killer.2011.1080p.BluRay.x264-REGRET 6.57GB




◎译  名 杀手的挽歌 / Requiem for a killer / 杀手安魂曲
◎片  名 Requiem pour une tueuse
◎年  代 2011
◎产  地 法国
◎类  别 惊悚
◎语  言 法语
◎上映日期 2011-02-23
◎IMDb评分 5.1/10 from 1094 users
◎IMDb链接 http://www.imdb.com/title/tt1723047
◎豆瓣评分 5.5/10 from 690 users
◎豆瓣链接 https://movie.douban.com/subject/5342506/
◎片  长 92分钟
◎导  演 Jér?me Le Gris
◎编  剧 Jér?me Le Gris
◎主  演 梅拉尼·罗兰 Mélanie Laurent
      科洛维斯·科尔尼拉 Clovis Cornillac
      切基·卡尤 Tchéky Karyo
      Xavier Gallais


◎标  签 法国 | 犯罪 | 法国电影 | 悬疑 | MélanieLaurent | 杀手 | 2011 | 动作

◎简  介

  卢瑟斯(梅拉尼·罗兰 Mélanie Laurent 饰)是一名入行已久的职业杀手,常年浸淫在充满了血腥和杀戮的生活中,卢瑟斯身心俱疲,只希望能够找到机会,金盆洗手,回归正常平静的生活之中。
为了实现自己的愿望,卢瑟斯接下了最后一个,也是最危险的一个任务,她将前往位于阿尔卑斯山上的一座城堡之中,杀掉在节日演唱会中登台表演的男高音亚里斯山大(Christopher Stills 饰)。让卢瑟斯没有想到的是,她的行踪暴露了,为了保护亚里斯山大,法国反间谍机构派出了名叫里克(科洛维斯·科尔尼拉 Clovis Cornillac 饰)的前特工,潜伏在卢瑟斯的身边,用尽一切手段,只为破坏卢瑟斯的行动。

Video
ID : 1
Format : AVC
Format/Info : Advanced Video Codec
Format profile : [email protected]
Format settings : CABAC / 5 Ref Frames
Format settings, CABAC : Yes
Format settings, ReFrames : 5 frames
Codec ID : V_MPEG4/ISO/AVC
Duration : 1 h 32 min
Bit rate : 9 498 kb/s
Width : 1 920 pixels
Height : 816 pixels
Display aspect ratio : 2.35:1
Frame rate mode : Constant
Frame rate : 23.976 (24000/1001) FPS
Color space : YUV
Chroma subsampling : 4:2:0
Bit depth : 8 bits
Scan type : Progressive
Bits/(Pixel*Frame) : 0.253
Stream size : 6.14 GiB (94%)
Writing library : x264 core 157 r2935 545de2f
Encoding settings : cabac=1 / ref=5 / deblock=1:-3:-3 / analyse=0x3:0x133 / me=umh / subme=9 / psy=1 / psy_rd=1.00:0.00 / mixed_ref=1 / me_range=16 / chroma_me=1 / trellis=2 / 8x8dct=1 / cqm=0 / deadzone=21,11 / fast_pskip=0 / chroma_qp_offset=-2 / threads=24 / lookahead_threads=2 / sliced_threads=0 / nr=0 / decimate=1 / interlaced=0 / bluray_compat=0 / constrained_intra=0 / bframes=3 / b_pyramid=2 / b_adapt=1 / b_bias=0 / direct=3 / weightb=1 / open_gop=0 / weightp=2 / keyint=240 / keyint_min=24 / scenecut=40 / intra_refresh=0 / rc_lookahead=50 / rc=2pass / mbtree=1 / bitrate=9498 / ratetol=1.0 / qcomp=0.60 / qpmin=0 / qpmax=69 / qpstep=4 / cplxblur=20.0 / qblur=0.5 / ip_ratio=1.40 / aq=1:1.00
Language : English
Default : Yes
Forced : No

Audio
ID : 2
Format : AC-3
Format/Info : Audio Coding 3
Commercial name : Dolby Digital
Codec ID : A_AC3
Duration : 1 h 32 min
Bit rate mode : Constant
Bit rate : 640 kb/s
Channel(s) : 6 channels
Channel layout : L R C LFE Ls Rs
Sampling rate : 48.0 kHz
Frame rate : 31.250 FPS (1536 SPF)
Bit depth : 16 bits
Compression mode : Lossy
Stream size : 424 MiB (6%)
Language : French
Service kind : Complete Main
Default : Yes
Forced : No

Text
ID : 3
Format : UTF-8
Codec ID : S_TEXT/UTF8
Codec ID/Info : UTF-8 Plain Text
Duration : 1 h 24 min
Bit rate : 33 b/s
Count of elements : 761
Stream size : 20.8 KiB (0%)
Title : English
Language : English
Default : Yes
Forced : Yes

Menu
00:00:00.000 : en:00:00:00.000
00:09:05.378 : en:00:09:05.378
00:17:43.562 : en:00:17:43.562
00:24:00.648 : en:00:24:00.648
00:30:50.724 : en:00:30:50.724
00:35:51.691 : en:00:35:51.691
00:42:58.201 : en:00:42:58.201
00:51:44.059 : en:00:51:44.059
00:59:33.528 : en:00:59:33.528
01:04:37.165 : en:01:04:37.165
01:20:04.008 : en:01:20:04.008
01:23:46.605 : en:01:23:46.605





1 个附件 售价 大小 下载 时间

Requiem.for.a.Killer.2011.1080p.BluRay.x264-REGRET.torrent 0 金币 33.67K 833 次 2月前

#1楼
发帖时间:2019-06-10 10:12:19   |   回复数:2
liyouchai
隐世仙人♂
谢谢楼主分享资源
2月前 #2楼
tanchoohoon
武林盟主
感谢楼主的无私分享
2月前 #3楼
游客组