conanlcg
超级版主

[2011] [其他] [科幻] [BD-1080P] 维尔博 Verbo.2011.SPANISH.1080p.BluRay.x264-MUxHD 5.66GB

-->

帖子完整标题:维尔博 Verbo.2011.SPANISH.1080p.BluRay.x264-MUxHD 5.66GB




◎译  名 维尔博
◎片  名 Verbo
◎年  代 2011
◎产  地 西班牙
◎类  别 科幻
◎语  言 西班牙语
◎上映日期 2010
◎IMDb评分 4.8/10 from 780 users
◎IMDb链接 http://www.imdb.com/title/tt1534564
◎豆瓣评分 6.5/10 from 71 users
◎豆瓣链接 https://movie.douban.com/subject/4904679/
◎片  长 87分钟
◎导  演 Eduardo Chapero-Jackson
◎编  剧 Eduardo Chapero-Jackson
◎主  演 米格尔·安格·希尔维斯特 Miguel ángel Silvestre
      Alba García
      薇洛妮卡·恩切圭 Verónica Echegui
      Víctor Clavijo
      玛卡蕾娜·戈麦斯 Macarena Gómez
      Adam Jeziersky
      Fernando Soto


◎标  签 西班牙 | 成长 | 励志 | 科幻 | 青春 | 西班牙电影 | 想象力 | 心理

◎简  介

  少女莎拉与自己所处的世界格格不入,苦苦追寻生命意义的她踏上了一段惊险的旅程。http://www.btbtdy.com/btdy/dy7989.html

◎获奖情况

  第26届西班牙戈雅奖(2012)
  最佳新人导演(提名) Eduardo Chapero-Jackson
  最佳新人女演员(提名) Alba García
  最佳原创歌曲(提名) Pascal Gaigne



Video
ID : 1
Format : AVC
Format/Info : Advanced Video Codec
Format profile : [email protected]
Format settings : CABAC / 5 Ref Frames
Format settings, CABAC : Yes
Format settings, ReFrames : 5 frames
Codec ID : V_MPEG4/ISO/AVC
Duration : 1 h 24 min
Bit rate : 8 121 kb/s
Width : 1 920 pixels
Height : 816 pixels
Display aspect ratio : 2.35:1
Frame rate mode : Constant
Frame rate : 25.000 FPS
Color space : YUV
Chroma subsampling : 4:2:0
Bit depth : 8 bits
Scan type : Progressive
Bits/(Pixel*Frame) : 0.207
Stream size : 4.78 GiB (84%)
Writing library : x264 core 133 r2334 a3ac64b
Encoding settings : cabac=1 / ref=5 / deblock=1:0:0 / analyse=0x3:0x133 / me=umh / subme=7 / psy=1 / psy_rd=1.00:0.00 / mixed_ref=1 / me_range=16 / chroma_me=1 / trellis=1 / 8x8dct=1 / cqm=0 / deadzone=21,11 / fast_pskip=0 / chroma_qp_offset=-2 / threads=12 / lookahead_threads=2 / sliced_threads=0 / nr=0 / decimate=1 / interlaced=0 / bluray_compat=0 / constrained_intra=0 / bframes=3 / b_pyramid=2 / b_adapt=2 / b_bias=0 / direct=3 / weightb=1 / open_gop=0 / weightp=2 / keyint=250 / keyint_min=25 / scenecut=40 / intra_refresh=0 / rc_lookahead=50 / rc=2pass / mbtree=1 / bitrate=8121 / ratetol=1.0 / qcomp=0.60 / qpmin=0 / qpmax=69 / qpstep=4 / cplxblur=20.0 / qblur=0.5 / ip_ratio=1.40 / aq=1:1.00
Language : English
Default : Yes
Forced : No

Audio
ID : 2
Format : DTS
Format/Info : Digital Theater Systems
Codec ID : A_DTS
Duration : 1 h 24 min
Bit rate mode : Constant
Bit rate : 1 509 kb/s
Channel(s) : 6 channels
Channel layout : C L R Ls Rs LFE
Sampling rate : 48.0 kHz
Frame rate : 93.750 FPS (512 SPF)
Bit depth : 24 bits
Compression mode : Lossy
Stream size : 908 MiB (16%)
Language : Spanish
Default : No
Forced : No

Text
ID : 3
Format : UTF-8
Codec ID : S_TEXT/UTF8
Codec ID/Info : UTF-8 Plain Text
Duration : 1 h 19 min
Bit rate : 40 b/s
Count of elements : 813
Stream size : 23.6 KiB (0%)
Language : English
Default : Yes
Forced : Yes





1 个附件 售价 大小 下载 时间

Verbo.2011.SPANISH.1080p.BluRay.x264-MUxHD.torrent 0 金币 28.84K 280 次 2月前

#1楼
发帖时间:2019-06-09 02:22:32   |   回复数:2
911degrees
隐世仙人♂
非常感谢,谢谢分享
2月前 #2楼
liyouchai
隐世仙人♂
谢谢楼主分享资源
2月前 #3楼
游客组