conanlcg
超级版主

[2011] [欧美] [喜剧] [WEB-1080P] 路易·C·K:比肯中心现演 Louis.C.K.Live.at.the.Beacon.Theater.2011.1080p.NF.WEBRip.DDP2.0.x

-->

帖子完整标题:路易·C·K:比肯中心现演 Louis.C.K.Live.at.the.Beacon.Theater.2011.1080p.NF.WEBRip.DDP2.0.x264-monkee 1.65GB




◎译  名 路易·C·K:比肯中心现演 / Louis C.K. Live From the Beacon Theatre
◎片  名 Louis C.K. Live From the Beacon Theatre
◎年  代 2011
◎产  地 美国
◎类  别 喜剧 / 舞台艺术
◎语  言 英语
◎上映日期 2011-12-10
◎IMDb评分 8.4/10 from 8447 users
◎IMDb链接 http://www.imdb.com/title/tt2112999
◎豆瓣评分 8.8/10 from 1166 users
◎豆瓣链接 https://movie.douban.com/subject/7046676/
◎编  剧 路易·C·K Louis C.K.
◎主  演 路易·C·K Louis C.K.


◎标  签 美国 | 脱口秀 | LouisCK | Stand-up | 喜剧 | LouisC.K. | 2011 | Comedy

◎简  介

  暂无相关剧情介绍

Video
ID : 1
Format : AVC
Format/Info : Advanced Video Codec
Format profile : [email protected]
Format settings : CABAC / 3 Ref Frames
Format settings, CABAC : Yes
Format settings, ReFrames : 3 frames
Codec ID : V_MPEG4/ISO/AVC
Duration : 1 h 2 min
Bit rate mode : Variable
Bit rate : 3 650 kb/s
Maximum bit rate : 5 475 kb/s
Width : 1 920 pixels
Height : 1 080 pixels
Display aspect ratio : 16:9
Frame rate mode : Constant
Frame rate : 23.976 (24000/1001) FPS
Color space : YUV
Chroma subsampling : 4:2:0
Bit depth : 8 bits
Scan type : Progressive
Bits/(Pixel*Frame) : 0.073
Stream size : 1.59 GiB (97%)
Writing library : x264 core 118
Encoding settings : cabac=1 / ref=3 / deblock=1:0:0 / analyse=0x1:0x111 / me=umh / subme=10 / psy=1 / psy_rd=1.00:0.00 / mixed_ref=1 / me_range=24 / chroma_me=1 / trellis=2 / 8x8dct=0 / cqm=0 / deadzone=21,11 / fast_pskip=1 / chroma_qp_offset=-2 / threads=8 / sliced_threads=0 / nr=0 / decimate=1 / interlaced=0 / bluray_compat=0 / constrained_intra=0 / bframes=2 / b_pyramid=0 / b_adapt=2 / b_bias=0 / direct=3 / weightb=1 / open_gop=0 / weightp=2 / keyint=48 / keyint_min=25 / scenecut=0 / intra_refresh=0 / rc_lookahead=0 / rc=2pass / mbtree=1 / bitrate=3650 / ratetol=1.0 / qcomp=0.50 / qpmin=6 / qpmax=51 / qpstep=4 / cplxblur=20.0 / qblur=0.5 / vbv_maxrate=5475 / vbv_bufsize=7300 / nal_hrd=vbr / ip_ratio=1.40 / aq=1:1.00
Default : Yes
Forced : No

Audio
ID : 2
Format : E-AC-3
Format/Info : Enhanced AC-3
Commercial name : Dolby Digital Plus
Codec ID : A_EAC3
Duration : 1 h 2 min
Bit rate mode : Constant
Bit rate : 128 kb/s
Channel(s) : 2 channels
Channel layout : L R
Sampling rate : 48.0 kHz
Frame rate : 31.250 FPS (1536 SPF)
Compression mode : Lossy
Stream size : 57.3 MiB (3%)
Language : English
Service kind : Complete Main
Default : Yes
Forced : No

Text
ID : 3
Format : UTF-8
Codec ID : S_TEXT/UTF8
Codec ID/Info : UTF-8 Plain Text
Duration : 1 h 0 min
Bit rate : 95 b/s
Count of elements : 2035
Stream size : 42.1 KiB (0%)
Language : English
Default : No
Forced : No





1 个附件 售价 大小 下载 时间

Louis.C.K.Live.at.the.Beacon.Theater.2011.1080p.NF.WEBRip.DDP2.0.x264-monkee.torrent 0 金币 17.07K 287 次 4月前

#1楼
发帖时间:2019-05-30 12:21:40   |   回复数:2
liyouchai
隐世仙人♂
谢谢楼主分享资源
4月前 #2楼
911degrees
隐世仙人♂
非常感谢,谢谢分享
4月前 #3楼
游客组