aoloffline
版主

[2011] [香港] [历史] [BD-1080P] [BT下载]鸿门宴传奇 White.Vengeance.2011.1080p.BluRay.x264-SONiDO 9.83GB

-->

White.Vengeance.2011.1080p.BluRay.x264-SONiDO

◎译  名 鸿门宴

◎片  名 鸿门宴传奇

◎年  代 2011

◎产  地 中国大陆/香港

◎类  别 剧情/动作/历史/爱情/古装

◎语  言 汉语普通话/粤语

◎上映日期 2011-11-29(中国大陆)

◎豆瓣评分 6.3/10 from 83,768 users

◎豆瓣链接 https://movie.douban.com/subject/5908477/

◎BT之家整理 http://www.btbtt.us/

◎片  长 135分钟

◎导  演 李仁港 Daniel Lee

◎主  演 黎明 Leon Lai

      冯绍峰 Shaofeng Feng

      刘亦菲 Yifei Liu

      张涵予 Hanyu Zhang

      黄秋生 Anthony Wong Chau-Sang

      陈小春 Jordan Chan

      安志杰 Andy On

      贾青 Qing Jia

      孙文婷 Wen-ting Sun

      孟瞳迪 Tong-di Meng

      黄姿琪 Ziqi Huang

      修庆 Qing Xiu

      丁海峰 Haifeng Ding

      徐向东 Xiangdong Xu

      陈观泰 Kuan Tai Chen

      午马 Ma Wu

      陈之辉 Zhi-hui Chen

      杜玉明 Yuming Du


◎简  介


  巍巍大秦,一统中原。然而好景不长,秦王朝以暴政治国,致令黎民百姓、公侯王卿噤若寒蝉,心生怨恨。最终义军并起,蚕食大秦江山。时有刘邦(黎明 饰)、项羽(冯绍峰 饰)两大英雄豪杰,引得樊哙(陈小春 饰)、张良(张涵予 饰)、范增(黄秋生 饰)、萧何(修庆 饰)等无数热血男儿和雄韬谋士来伏。楚怀王心知二人胸怀野心,难以控制,于是求得离间之计,与二人约定先入咸阳者可成王。在此之后,刘邦奇谋入住咸阳,最终导致刘项这对惺惺相惜的昔日盟友决裂。

  秦朝灭亡,随即拉开楚汉之争的大幕,上演了鸿门宴和霸王别姬的千古英雄传奇……


◎获奖情况


  第31届香港电影金像奖  (2012)

  最佳美术指导(提名) 李仁港

  最佳服装造型设计(提名) 莫均杰 / 黄明霞

  最佳原创电影音乐(提名) 黎允文

  最佳音响效果(提名) 郑颖园 / 林绍儒


  第6届亚洲电影大奖  (2012)

  最佳剪接(提名) 邓文滔

  最佳造型设计(提名) 莫均杰 / 黄明霞


  第11届中国长春电影节  (2012)

  金鹿奖 最佳摄影(提名) 张东亮

  金鹿奖 最佳音乐(提名) 黎允文


  第12届华语电影传媒大奖  (2012)

  观众票选最受瞩目男演员(提名) 冯绍峰


  第2届豆瓣电影鑫像奖  (2012)

  豆渣单元 最渣男演员(华语)(提名) 黎明

  豆渣单元 最渣女演员(华语)(提名) 刘亦菲



Video
ID : 1
Format : AVC
Format/Info : Advanced Video Codec
Format profile : [email protected]
Format settings : CABAC / 5 Ref Frames
Format settings, CABAC : Yes
Format settings, ReFrames : 5 frames
Codec ID : V_MPEG4/ISO/AVC
Duration : 2 h 12 min
Bit rate : 9 152 kb/s
Width : 1 920 pixels
Height : 816 pixels
Display aspect ratio : 2.35:1
Frame rate mode : Constant
Frame rate : 25.000 FPS
Color space : YUV
Chroma subsampling : 4:2:0
Bit depth : 8 bits
Scan type : Progressive
Bits/(Pixel*Frame) : 0.234
Stream size : 8.25 GiB (84%)
Writing library : x264 core 125 r2208 d9d2288
Encoding settings : cabac=1 / ref=5 / deblock=1:0:0 / analyse=0x3:0x133 / me=umh / subme=7 / psy=1 / psy_rd=1.00:0.00 / mixed_ref=1 / me_range=16 / chroma_me=1 / trellis=1 / 8x8dct=1 / cqm=0 / deadzone=21,11 / fast_pskip=0 / chroma_qp_offset=-2 / threads=12 / lookahead_threads=2 / sliced_threads=0 / nr=0 / decimate=1 / interlaced=0 / bluray_compat=0 / constrained_intra=0 / bframes=3 / b_pyramid=2 / b_adapt=2 / b_bias=0 / direct=3 / weightb=1 / open_gop=0 / weightp=2 / keyint=250 / keyint_min=25 / scenecut=40 / intra_refresh=0 / rc_lookahead=50 / rc=2pass / mbtree=1 / bitrate=9152 / ratetol=1.0 / qcomp=0.60 / qpmin=0 / qpmax=69 / qpstep=4 / cplxblur=20.0 / qblur=0.5 / ip_ratio=1.40 / aq=1:1.00
Language : English
Default : Yes
Forced : No

Audio
ID : 2
Format : DTS
Format/Info : Digital Theater Systems
Codec ID : A_DTS
Duration : 2 h 12 min
Bit rate mode : Constant
Bit rate : 1 509 kb/s
Channel(s) : 6 channels
Channel positions : Front: L C R, Side: L R, LFE
Sampling rate : 48.0 kHz
Frame rate : 93.750 FPS (512 SPF)
Bit depth : 24 bits
Compression mode : Lossy
Stream size : 1.39 GiB (14%)
Language : Chinese
Default : Yes
Forced : No

Text
ID : 3
Format : UTF-8
Codec ID : S_TEXT/UTF8
Codec ID/Info : UTF-8 Plain Text
Language : English
Default : Yes
Forced : No




1 个附件 售价 大小 下载 时间

White.Vengeance.2011.1080p.BluRay.x264-SONiDO[btbtt.me].torrent 0 金币 98.84K 3630 次 2018-8-22

#1楼
发帖时间:2018-08-22 11:53:11   |   回复数:7
yangbo83222179
一代宗师
谢谢楼主分享,支持一下
2018-8-22 #2楼
kola13
一派掌门
感谢分享
2018-8-22 #3楼
tanchoohoon
武林盟主
感谢楼主的无私分享!
2018-8-22 #4楼
911degrees
隐世仙人♂
非常感谢,谢谢分享
2018-8-22 #5楼
liyouchai
隐世仙人♂
谢谢楼主分享资源
2018-8-22 #6楼
chulps
一代宗师
~ 感谢分享 ~
2018-8-23 #7楼
blue23
隐世仙人♂
感谢楼主分享
2018-8-23 #8楼
游客组