aoloffline
版主

[2011] [欧美] [剧情] [BD-Remux] [BT下载]勇士 2011.2160p.BluRay.REMUX.HEVC.DTS-HD.MA.TrueHD.7.1.Atmos-FGT 73GB

-->

Warrior.2011.2160p.BluRay.REMUX.HEVC.DTS-HD.MA.TrueHD.7.1.Atmos-FGT

◎译  名 勇士/勇者无敌(台)/钢铁斗士(港)/武士/拳击勇士

◎片  名 Warrior

◎年  代 2011

◎产  地 美国

◎类  别 剧情/运动/家庭

◎语  言 英语

◎上映日期 2011-09-09(美国)

◎IMDb评分  8.2/10 from 369,821 users

◎IMDb链接  http://www.imdb.com/title/tt1291584/

◎豆瓣评分 8.9/10 from 86,450 users

◎豆瓣链接 https://movie.douban.com/subject/3217169/

◎BT之家整理 http://www.btbtt.co

◎片  长 140分钟

◎导  演 加文·欧康诺 Gavin O'Connor

◎主  演 汤姆·哈迪 Tom Hardy

      乔尔·埃哲顿 Joel Edgerton

      尼克·诺特 Nick Nolte

      詹妮弗·莫里森 Jennifer Morrison

      弗兰克·格里罗 Frank Grillo

      凯文·杜恩 Kevin Dunn


◎简  介


  这是一个破碎的家庭,酗酒的教练父亲帕迪(尼克·诺特 Nick Nolte 饰)家暴妻子,次子汤米(汤姆·哈迪 Tom Hardy 饰)与不堪忍受的母亲远赴他乡;长子布兰登(乔尔·埃哲顿 Joel Edgerton 饰)为了爱情选择留下,并认为从此可以得到父亲的器重与栽培,然而最后父子还是分道扬镳。时隔多年后,汤米带着母亲痛苦死去的悲伤记忆,以及在伊战中的惨痛经历找到父亲,要求后者再度担任自己的教练,以参加MMA的重奖大赛;几乎与此同时,昔日的职业格斗选手、如今的中学物理教师布兰登为金钱所困扰,他不能忍受自己无法为妻女提供庇护,决定重返赛场。在MMA的赛场上,这对分离多年的兄弟将再度聚首,用血与汗的交融,化释彼此的心结……


◎获奖情况


  第84届奥斯卡金像奖  (2012)

  最佳男配角(提名) 尼克·诺特


  第21届MTV电影奖  (2012)

  MTV电影奖 最佳打斗(提名) 汤姆·哈迪 / 乔尔·埃哲顿


  第17届美国评论家选择电影奖  (2012)

  最佳男配角(提名) 尼克·诺特


  第16届圣地亚哥影评人协会奖  (2011)

  最佳男配角 尼克·诺特


  第24届芝加哥影评人协会奖  (2011)

  最佳男配角(提名) 尼克·诺特


  第14届美国青少年选择奖  (2012)

  最佳动作片男演员(提名) 汤姆·哈迪


  第2届豆瓣电影鑫像奖  (2012)

  鑫豆单元 最佳影片(外语)(提名)

  鑫豆单元 最佳男演员(外语)(提名) 汤姆·哈迪



Video
ID                                       : 1
Format                                   : HEVC
Format/Info                              : High Efficiency Video Coding
Format profile                           : Main [email protected]@High
Codec ID                                 : V_MPEGH/ISO/HEVC
Duration                                 : 2 h 19 min
Bit rate                                 : 65.6 Mb/s
Width                                    : 3 840 pixels
Height                                   : 2 160 pixels
Display aspect ratio                     : 16:9
Frame rate mode                          : Constant
Frame rate                               : 23.976 (24000/1001) FPS
Color space                              : YUV
Chroma subsampling                       : 4:2:0 (Type 2)
Bit depth                                : 10 bits
Bits/(Pixel*Frame)                       : 0.330
Stream size                              : 64.1 GiB (86%)
Title                                    : Warrior.2011.2160p.BluRay.REMUX.HEVC.DTS-HD.MA.TrueHD.7.1.Atmos-FGT
Writing library                          : ATEME Titan File 3.7.9 (4.7.9.0)
Default                                  : Yes
Forced                                   : No
Color range                              : Limited
Color primaries                          : BT.2020
Transfer characteristics                 : PQ
Matrix coefficients                      : BT.2020 non-constant
Mastering display color primaries        : R: x=0.680000 y=0.320000, G: x=0.265000 y=0.690000, B: x=0.150000 y=0.060000, White point: x=0.312700 y=0.329000
Mastering display luminance              : min: 0.0000 cd/m2, max: 1000.0000 cd/m2
Maximum Content Light Level              : 1000 cd/m2
Maximum Frame-Average Light Level        : 429 cd/m2

Audio #1
ID                                       : 2
Format                                   : TrueHD
Format profile                           : TrueHD+Atmos / TrueHD
Codec ID                                 : A_TRUEHD
Duration                                 : 2 h 19 min
Bit rate mode                            : Variable
Bit rate                                 : 4 335 kb/s
Maximum bit rate                         : 8 205 kb/s
Channel(s)                               : Object Based / 8 channels
Channel positions                        : Object Based / Front: L C R, Side: L R, Back: L R, LFE
Sampling rate                            :  / 48.0 kHz
Frame rate                               : 1 200.000 FPS (40 SPF)
Compression mode                         : Lossless
Delay relative to video                  : 32 ms
Stream size                              : 4.24 GiB (6%)
Title                                    : Warrior.2011.2160p.BluRay.REMUX.HEVC.DTS-HD.MA.TrueHD.7.1.Atmos-FGT
Language                                 : English
Default                                  : Yes
Forced                                   : No

Audio #2
ID                                       : 3
Format                                   : DTS
Format/Info                              : Digital Theater Systems
Format profile                           : MA / Core
Codec ID                                 : A_DTS
Duration                                 : 2 h 26 min
Bit rate mode                            : Variable / Constant
Bit rate                                 : 3 949 kb/s / 1 509 kb/s
Channel(s)                               : 8 channels / 6 channels
Channel positions                        : Front: L C R, Side: L R, Back: L R, LFE / Front: L C R, Side: L R, LFE
Sampling rate                            : 48.0 kHz
Frame rate                               : 93.750 FPS (512 SPF)
Bit depth                                : 24 bits
Compression mode                         : Lossless / Lossy
Stream size                              : 4.03 GiB (5%)
Title                                    : Warrior.2011.2160p.BluRay.REMUX.HEVC.DTS-HD.MA.TrueHD.7.1.Atmos-FGT
Language                                 : English
Default                                  : No
Forced                                   : No

Audio #3
ID                                       : 4
Format                                   : AC-3
Format/Info                              : Audio Coding 3
Codec ID                                 : A_AC3
Duration                                 : 2 h 19 min
Bit rate mode                            : Constant
Bit rate                                 : 640 kb/s
Channel(s)                               : 6 channels
Channel positions                        : Front: L C R, Side: L R, LFE
Sampling rate                            : 48.0 kHz
Frame rate                               : 31.250 FPS (1536 SPF)
Bit depth                                : 16 bits
Compression mode                         : Lossy
Delay relative to video                  : 31 ms
Stream size                              : 640 MiB (1%)
Title                                    : Warrior.2011.2160p.BluRay.REMUX.HEVC.DTS-HD.MA.TrueHD.7.1.Atmos-FGT
Language                                 : English
Service kind                             : Complete Main
Default                                  : No
Forced                                   : No

Audio #4
ID                                       : 5
Format                                   : AC-3
Format/Info                              : Audio Coding 3
Codec ID                                 : A_AC3
Duration                                 : 2 h 19 min
Bit rate mode                            : Constant
Bit rate                                 : 224 kb/s
Channel(s)                               : 2 channels
Channel positions                        : Front: L R
Sampling rate                            : 48.0 kHz
Frame rate                               : 31.250 FPS (1536 SPF)
Bit depth                                : 16 bits
Compression mode                         : Lossy
Stream size                              : 224 MiB (0%)
Title                                    : Warrior.2011.2160p.BluRay.REMUX.HEVC.DTS-HD.MA.TrueHD.7.1.Atmos-FGT
Language                                 : English
Service kind                             : Complete Main
Default                                  : No
Forced                                   : No

Audio #5
ID                                       : 6
Format                                   : AC-3
Format/Info                              : Audio Coding 3
Codec ID                                 : A_AC3
Duration                                 : 2 h 19 min
Bit rate mode                            : Constant
Bit rate                                 : 640 kb/s
Channel(s)                               : 6 channels
Channel positions                        : Front: L C R, Side: L R, LFE
Sampling rate                            : 48.0 kHz
Frame rate                               : 31.250 FPS (1536 SPF)
Bit depth                                : 16 bits
Compression mode                         : Lossy
Stream size                              : 640 MiB (1%)
Title                                    : Warrior.2011.2160p.BluRay.REMUX.HEVC.DTS-HD.MA.TrueHD.7.1.Atmos-FGT
Language                                 : French
Service kind                             : Complete Main
Default                                  : No
Forced                                   : No

Audio #6
ID                                       : 7
Format                                   : AC-3
Format/Info                              : Audio Coding 3
Codec ID                                 : A_AC3
Duration                                 : 2 h 19 min
Bit rate mode                            : Constant
Bit rate                                 : 224 kb/s
Channel(s)                               : 2 channels
Channel positions                        : Front: L R
Sampling rate                            : 48.0 kHz
Frame rate                               : 31.250 FPS (1536 SPF)
Bit depth                                : 16 bits
Compression mode                         : Lossy
Stream size                              : 224 MiB (0%)
Title                                    : Warrior.2011.2160p.BluRay.REMUX.HEVC.DTS-HD.MA.TrueHD.7.1.Atmos-FGT
Language                                 : English
Service kind                             : Complete Main
Default                                  : No
Forced                                   : No

Text #1
ID                                       : 8
Format                                   : PGS
Muxing mode                              : zlib
Codec ID                                 : S_HDMV/PGS
Codec ID/Info                            : Picture based subtitle format used on BDs/HD-DVDs
Duration                                 : 2 h 8 min
Bit rate                                 : 46.9 kb/s
Count of elements                        : 3724
Stream size                              : 42.9 MiB (0%)
Title                                    : English-PGS
Language                                 : English
Default                                  : Yes
Forced                                   : No

Text #2
ID                                       : 9
Format                                   : PGS
Muxing mode                              : zlib
Codec ID                                 : S_HDMV/PGS
Codec ID/Info                            : Picture based subtitle format used on BDs/HD-DVDs
Duration                                 : 2 h 12 min
Bit rate                                 : 48.6 kb/s
Count of elements                        : 3998
Stream size                              : 46.1 MiB (0%)
Title                                    : English-SDH-PGS
Language                                 : English
Default                                  : No
Forced                                   : No

Text #3
ID                                       : 10
Format                                   : PGS
Muxing mode                              : zlib
Codec ID                                 : S_HDMV/PGS
Codec ID/Info                            : Picture based subtitle format used on BDs/HD-DVDs
Duration                                 : 2 h 8 min
Bit rate                                 : 42.9 kb/s
Count of elements                        : 3760
Stream size                              : 39.3 MiB (0%)
Title                                    : Spanish-PGS
Language                                 : Spanish
Default                                  : No
Forced                                   : No

Menu
00:00:00.000                             : en:Chapter 1
00:10:32.048                             : en:Chapter 2
00:16:45.921                             : en:Chapter 3
00:26:33.758                             : en:Chapter 4
00:39:08.179                             : en:Chapter 5
00:45:48.829                             : en:Chapter 6
00:51:28.126                             : en:Chapter 7
00:58:27.003                             : en:Chapter 8
01:06:01.666                             : en:Chapter 9
01:14:26.462                             : en:Chapter 10
01:22:32.113                             : en:Chapter 11
01:30:34.846                             : en:Chapter 12
01:40:45.247                             : en:Chapter 13
01:52:55.185                             : en:Chapter 14
02:00:20.296                             : en:Chapter 15
02:06:49.602                             : en:Chapter 16




1 个附件 售价 大小 下载 时间

Warrior.2011.2160p.BluRay.REMUX.HEVC.DTS-HD.MA.TrueHD.7.1.Atmos-FGT[btbtt.me].torrent 0 金币 185.24K 1001 次 2017-12-21

#1楼
发帖时间:2017-12-21 00:08:11   |   回复数:4
liyouchai
隐世仙人♂
谢谢楼主分享资源
2017-12-21 #2楼
911degrees
隐世仙人♂
非常感谢,谢谢分享
2017-12-21 #3楼
blue23
隐世仙人♂
感谢楼主分享
2017-12-22 #4楼
jokingcheung
一代宗师
谢谢分享
2017-12-31 #5楼
游客组