HELLO小虾
版主

[2011] [欧美] [动作] [BD-3D] [BT下载]三个火枪手[3D左右]2011.1080p.3D.BluRay.Half-SBS.x264.DTS-HD.MA.5.1-RARBG 18GB

-->

The.Three.Musketeers.2011.1080p.3D.BluRay.Half-SBS.x264.DTS-HD.MA.5.1-RARBG

◎译  名 三个火枪手/三剑侠3D 双城暗战(港)/3D剑客联盟:云端之战(台)

◎片  名 The Three Musketeers

◎年  代 2011

◎国  家 法国/美国/英国/德国

◎类  别 动作/冒险/爱情

◎语  言 英语

◎上映日期 2011-10-14(美国)/2012-05-15(中国大陆)

◎IMDb评分  5.8/10 from 86,883 users

◎IMDb链接  http://www.imdb.com/title/tt1509767/

◎豆瓣评分 6.7/10 from 41,505 users

◎豆瓣链接 http://movie.douban.com/subject/4035906/

◎片  长 110分钟

◎导  演 保罗·安德森 Paul W.S. Anderson

◎主  演 马修·麦克费登 Matthew Macfadyen

      米拉·乔沃维奇 Milla Jovovich

      卢克·伊万斯 Luke Evans

      克里斯托弗·沃尔兹 Christoph Waltz

      麦德斯·米科尔森 Mads Mikkelsen

      雷·史蒂文森 Ray Stevenson

      罗根·勒曼 Logan Lerman

      朱诺·坦普尔 Juno Temple

      奥兰多·布鲁姆 Orlando Bloom

      詹姆斯·柯登 James Corden

      加布瑞拉·王尔德 Gabriella Wilde

      弗莱迪·福克斯 Freddie Fox


◎简  介


  在一次行动,三剑客被米莱迪(米拉•乔沃维奇 Milla Jovovich 饰)和白金汉公爵(奥兰多•布鲁姆 Orlando Bloom 饰)背叛暗算,以失败归隐告终乡间。三年后,练就一手好剑术的达达尼昂(罗根•勒曼 Logan Lerman 饰)初出茅庐,来到巴黎投奔火枪队长特雷维尔(马修•麦克费登 Matthew Macfadyen 饰),与三剑客不打不相识,意外成为惺惺相惜的好友,同时也偶遇王后侍女,与之一见倾心。不久后众人意外得知权倾朝野的红衣教主黎塞留(克里斯托弗•沃尔兹 Christoph Waltz 饰)为了自己的灭国计划,想要挑拨英法两国关系,意欲制造一起皇室丑闻,使国王路易十三对王后安娜产生误会。富有正义感的众人为了抗击红衣教主的邪恶阴谋,维护安娜王后的清白,保持英法两国的和平关系,和敌人展开了斗智斗勇的比拼。达达尼昂更是凭借出色的剑术和足智多谋的头脑在这场争斗中崭露头角….

  该片改编自法国作家大仲马的代表作《三个火枪手》。


◎获奖情况


  第14届美国青少年选择奖  (2012)

  最佳动作片男演员(提名) 罗根·勒曼

  最佳动作片女演员(提名) 米拉·乔沃维奇


  • Video

  • ID                                       : 1

  • Format                                   : AVC

  • Format/Info                              : Advanced Video Codec

  • Format profile                           : [email protected]

  • Format settings, CABAC                   : Yes

  • Format settings, ReFrames                : 2 frames

  • Format settings, GOP                     : M=3, N=24

  • Codec ID                                 : V_MPEG4/ISO/AVC

  • Duration                                 : 1h 50mn

  • Nominal bit rate                         : 15.5 Mbps

  • Width                                    : 1 920 pixels

  • Height                                   : 1 080 pixels

  • Display aspect ratio                     : 16:9

  • Frame rate mode                          : Constant

  • Frame rate                               : 23.976 (24000/1001) fps

  • Color space                              : YUV

  • Chroma subsampling                       : 4:2:0

  • Bit depth                                : 8 bits

  • Scan type                                : Progressive

  • Bits/(Pixel*Frame)                       : 0.312

  • Title                                    : The.Three.Musketeers.2011.1080p.3D.BluRay.Half-SBS.x264.DTS-HD.MA.5.1-RARBG

  • Writing library                          : x264 core 142

  • Encoding settings                        : cabac=1 / ref=1 / deblock=1:-1:-1 / analyse=0x3:0 / me=hex / subme=5 / psy=0 / mixed_ref=0 / me_range=16 / chroma_me=1 / trellis=0 / 8x8dct=1 / cqm=0 / deadzone=21,11 / fast_pskip=0 / chroma_qp_offset=0 / threads=8 / lookahead_threads=2 / sliced_threads=0 / nr=0 / decimate=1 / interlaced=0 / bluray_compat=0 / constrained_intra=0 / bframes=2 / b_pyramid=0 / b_adapt=1 / b_bias=0 / direct=1 / weightb=0 / open_gop=0 / weightp=0 / keyint=24 / keyint_min=13 / scenecut=40 / intra_refresh=0 / rc=abr / mbtree=0 / bitrate=15500 / ratetol=1.0 / qcomp=0.60 / qpmin=0 / qpmax=69 / qpstep=4 / ip_ratio=1.40 / pb_ratio=1.30 / aq=1:1.00

  • Default                                  : Yes

  • Forced                                   : No

  • Color range                              : Limited

  • Color primaries                          : BT.709

  • Transfer characteristics                 : BT.709

  • Matrix coefficients                      : BT.709


  • Audio #1

  • ID                                       : 2

  • Format                                   : DTS

  • Format/Info                              : Digital Theater Systems

  • Format profile                           : MA / Core

  • Mode                                     : 16

  • Format settings, Endianness              : Big

  • Codec ID                                 : A_DTS

  • Duration                                 : 1h 50mn

  • Bit rate mode                            : Variable / Constant

  • Bit rate                                 : Unknown / 1 509 Kbps

  • Channel(s)                               : 6 channels

  • Channel positions                        : Front: L C R, Side: L R, LFE

  • Sampling rate                            : 48.0 KHz

  • Frame rate                               : 93.750 fps (512 spf)

  • Bit depth                                : 16 bits

  • Compression mode                         : Lossless / Lossy

  • Title                                    : The.Three.Musketeers.2011.1080p.3D.BluRay.Half-SBS.x264.DTS-HD.MA.5.1-RARBG

  • Language                                 : English

  • Default                                  : Yes

  • Forced                                   : No


  • Audio #2

  • ID                                       : 3

  • Format                                   : DTS

  • Format/Info                              : Digital Theater Systems

  • Mode                                     : 16

  • Format settings, Endianness              : Big

  • Codec ID                                 : A_DTS

  • Duration                                 : 1h 50mn

  • Bit rate mode                            : Constant

  • Bit rate                                 : 1 509 Kbps

  • Channel(s)                               : 6 channels

  • Channel positions                        : Front: L C R, Side: L R, LFE

  • Sampling rate                            : 48.0 KHz

  • Frame rate                               : 93.750 fps (512 spf)

  • Bit depth                                : 16 bits

  • Compression mode                         : Lossy

  • Stream size                              : 1.16 GiB (6%)

  • Title                                    : The.Three.Musketeers.2011.1080p.3D.BluRay.Half-SBS.x264.DTS-HD.MA.5.1-RARBG

  • Language                                 : English

  • Default                                  : No

  • Forced                                   : No


  • Audio #3

  • ID                                       : 4

  • Format                                   : DTS

  • Format/Info                              : Digital Theater Systems

  • Format profile                           : MA / Core

  • Mode                                     : 16

  • Format settings, Endianness              : Big

  • Codec ID                                 : A_DTS

  • Duration                                 : 1h 50mn

  • Bit rate mode                            : Variable / Constant

  • Bit rate                                 : Unknown / 1 509 Kbps

  • Channel(s)                               : 6 channels

  • Channel positions                        : Front: L C R, Side: L R, LFE

  • Sampling rate                            : 48.0 KHz

  • Frame rate                               : 93.750 fps (512 spf)

  • Bit depth                                : 16 bits

  • Compression mode                         : Lossless / Lossy

  • Title                                    : The.Three.Musketeers.2011.1080p.3D.BluRay.Half-SBS.x264.DTS-HD.MA.5.1-RARBG

  • Language                                 : Spanish

  • Default                                  : No

  • Forced                                   : No


  • Audio #4

  • ID                                       : 5

  • Format                                   : DTS

  • Format/Info                              : Digital Theater Systems

  • Mode                                     : 16

  • Format settings, Endianness              : Big

  • Codec ID                                 : A_DTS

  • Duration                                 : 1h 50mn

  • Bit rate mode                            : Constant

  • Bit rate                                 : 1 509 Kbps

  • Channel(s)                               : 6 channels

  • Channel positions                        : Front: L C R, Side: L R, LFE

  • Sampling rate                            : 48.0 KHz

  • Frame rate                               : 93.750 fps (512 spf)

  • Bit depth                                : 16 bits

  • Compression mode                         : Lossy

  • Stream size                              : 1.16 GiB (6%)

  • Title                                    : The.Three.Musketeers.2011.1080p.3D.BluRay.Half-SBS.x264.DTS-HD.MA.5.1-RARBG

  • Language                                 : Spanish

  • Default                                  : No

  • Forced                                   : No


  • Audio #5

  • ID                                       : 6

  • Format                                   : AC-3

  • Format/Info                              : Audio Coding 3

  • Mode extension                           : CM (complete main)

  • Format settings, Endianness              : Big

  • Codec ID                                 : A_AC3

  • Duration                                 : 1h 50mn

  • Bit rate mode                            : Constant

  • Bit rate                                 : 640 Kbps

  • Channel(s)                               : 6 channels

  • Channel positions                        : Front: L C R, Side: L R, LFE

  • Sampling rate                            : 48.0 KHz

  • Frame rate                               : 31.250 fps (1536 spf)

  • Compression mode                         : Lossy

  • Stream size                              : 505 MiB (3%)

  • Title                                    : The.Three.Musketeers.2011.1080p.3D.BluRay.Half-SBS.x264.DTS-HD.MA.5.1-RARBG

  • Language                                 : Catalan

  • Default                                  : No

  • Forced                                   : No


  • Audio #6

  • ID                                       : 7

  • Format                                   : AC-3

  • Format/Info                              : Audio Coding 3

  • Mode extension                           : CM (complete main)

  • Format settings, Endianness              : Big

  • Codec ID                                 : A_AC3

  • Duration                                 : 1h 50mn

  • Bit rate mode                            : Constant

  • Bit rate                                 : 640 Kbps

  • Channel(s)                               : 6 channels

  • Channel positions                        : Front: L C R, Side: L R, LFE

  • Sampling rate                            : 48.0 KHz

  • Frame rate                               : 31.250 fps (1536 spf)

  • Compression mode                         : Lossy

  • Stream size                              : 505 MiB (3%)

  • Title                                    : The.Three.Musketeers.2011.1080p.3D.BluRay.Half-SBS.x264.DTS-HD.MA.5.1-RARBG

  • Language                                 : Basque

  • Default                                  : No

  • Forced                                   : No


  • Text #1

  • ID                                       : 8

  • Format                                   : PGS

  • Muxing mode                              : zlib

  • Codec ID                                 : S_HDMV/PGS

  • Codec ID/Info                            : Picture based subtitle format used on BDs/HD-DVDs

  • Title                                    : English-PGS

  • Language                                 : English

  • Default                                  : No

  • Forced                                   : No


  • Text #2

  • ID                                       : 9

  • Format                                   : PGS

  • Muxing mode                              : zlib

  • Codec ID                                 : S_HDMV/PGS

  • Codec ID/Info                            : Picture based subtitle format used on BDs/HD-DVDs

  • Title                                    : Spanish-PGS

  • Language                                 : Spanish

  • Default                                  : No

  • Forced                                   : No


  • Text #3

  • ID                                       : 10

  • Format                                   : PGS

  • Muxing mode                              : zlib

  • Codec ID                                 : S_HDMV/PGS

  • Codec ID/Info                            : Picture based subtitle format used on BDs/HD-DVDs

  • Title                                    : Spanish-PGS

  • Language                                 : Spanish

  • Default                                  : No

  • Forced                                   : No


  • Menu

  • 00:00:00.000                             : en01)00:00:00:000

  • 00:06:08.785                             : en02)00:06:08:785

  • 00:12:20.489                             : en03)00:12:20:489

  • 00:17:30.591                             : en04)00:17:30:591

  • 00:23:51.179                             : en05)00:23:51:179

  • 00:31:26.676                             : en06)00:31:26:676

  • 00:35:54.485                             : en07)00:35:54:485

  • 00:42:29.547                             : en000:42:29:547

  • 00:47:03.612                             : en09)00:47:03:612

  • 00:53:16.318                             : en10)00:53:16:318

  • 00:59:12.715                             : en11)00:59:12:715

  • 01:04:38.040                             : en12)01:04:38:040

  • 01:08:32.108                             : en13)01:08:32:108

  • 01:14:22.416                             : en14)01:14:22:416

  • 01:21:03.608                             : en15)01:21:03:608

  • 01:25:42.011                             : en16)01:25:42:011

  • 01:36:08.679                             : en17)01:36:08:679

  • 01:41:29.625                             : en101:41:29:625

  • 01:50:19.571                             : en19)01:50:19:571






1 个附件 售价 大小 下载 时间

The.Three.Musketeers.2011.1080p.3D.BluRay.Half-SBS.x264.DTS-HD.MA.5.1-RARBG.torrent 0 金币 94.49K 2962 次 2016-3-27

#1楼
发帖时间:2016-03-27 10:30:23   |   回复数:4
blue23
隐世仙人♂
感谢楼主分享
2016-3-27 #2楼
liyouchai
隐世仙人♂
谢谢楼主分享资源
2016-3-27 #3楼
lqs10168
一代宗师
谢谢楼主无私分享
2016-3-27 #4楼
TOPMADE
一派掌门
没有字幕?
2016-3-27 #5楼
游客组