aoloffline
版主

[2011] [欧美] [战争] [BD-1080P] [BT下载]柑橘与柠檬啊 Private.Peaceful.2012.1080p.BluRay.x264.DTS-FGT 6.9GB

-->

Private.Peaceful.2012.1080p.BluRay.x264.DTS-FGT

◎译  名 柑橘与柠檬啊

◎片  名 Private Peaceful

◎年  代 2011

◎国  家 英国

◎类  别 剧情/战争

◎语  言 英语

◎上映日期 2011

◎IMDb评分  6.2/10 from 843 users

◎IMDb链接  http://www.imdb.com/title/tt1667439/

◎豆瓣评分 6.6/10 from 276 users

◎豆瓣链接 http://movie.douban.com/subject/5150915/

◎片  长 100分钟

◎导  演 Pat O'Connor

◎主  演 乔治·麦凯 George MacKay

      杰克·奥康奈尔 Jack O'Connell

      亚历山德拉·罗奇 Alexandra Roach

      弗朗西斯·德·拉·图瓦 Frances de la Tour

      理查德·格雷弗斯 Richard Griffiths

      约翰·林奇 John Lynch

      玛克辛·皮克 Maxine Peake

      Samuel Bottomley

      Hero Fiennes-Tiffin

      伊兹·米克尔-斯莫 Izzy Meikle-Small

      Anna Carteret

      Stephen Kennedy


◎简  介


  生活在英国小镇的小托,跟妈妈、两个哥哥,还有心生好感的姑娘莫莉,一起过着宁静、明亮、芬芳的生活。生活中也有悲伤、愁苦、失落,和看似解决不了的困境,每每这时,他们就唱起一首名叫《柑橘与柠檬啊》的歌。在歌声中,敏感、柔弱的小托慢慢长大。

  战争的轰然来临,改变了所有人的生活。小托本能地逃避战争的行为,却被别人以及他自己认为是懦弱的。为了逃避这种羞耻,为了逃避爱情的挫败,小托谎报了年龄,和查理一起应征入伍。


Video
ID                                       : 1
Format                                   : AVC
Format/Info                              : Advanced Video Codec
Format profile                           : Hig[email protected]
Format settings, CABAC                   : Yes
Format settings, ReFrames                : 4 frames
Codec ID                                 : V_MPEG4/ISO/AVC
Duration                                 : 1h 38mn
Bit rate                                 : 8 553 Kbps
Width                                    : 1 920 pixels
Height                                   : 1 040 pixels
Display aspect ratio                     : 1.85:1
Frame rate mode                          : Constant
Frame rate                               : 25.000 fps
Color space                              : YUV
Chroma subsampling                       : 4:2:0
Bit depth                                : 8 bits
Scan type                                : Progressive
Bits/(Pixel*Frame)                       : 0.171
Stream size                              : 5.74 GiB (83%)
Writing library                          : x264 core 140 r2377 1ca7bb9
Encoding settings                        : cabac=1 / ref=4 / deblock=1:-1:-1 / analyse=0x3:0x133 / me=umh / subme=7 / psy=1 / psy_rd=1.00:0.15 / mixed_ref=1 / me_range=16 / chroma_me=1 / trellis=1 / 8x8dct=1 / cqm=0 / deadzone=21,11 / fast_pskip=0 / chroma_qp_offset=-3 / threads=9 / lookahead_threads=1 / sliced_threads=0 / nr=0 / decimate=1 / interlaced=0 / bluray_compat=0 / constrained_intra=0 / bframes=3 / b_pyramid=2 / b_adapt=1 / b_bias=0 / direct=1 / weightb=1 / open_gop=0 / weightp=2 / keyint=250 / keyint_min=25 / scenecut=40 / intra_refresh=0 / rc_lookahead=40 / rc=2pass / mbtree=1 / bitrate=8553 / ratetol=1.0 / qcomp=0.60 / qpmin=0 / qpmax=69 / qpstep=4 / cplxblur=20.0 / qblur=0.5 / ip_ratio=1.40 / aq=1:1.00
Default                                  : Yes
Forced                                   : No

Audio
ID                                       : 2
Format                                   : DTS
Format/Info                              : Digital Theater Systems
Mode                                     : 16
Format settings, Endianness              : Big
Codec ID                                 : A_DTS
Duration                                 : 1h 38mn
Bit rate mode                            : Constant
Bit rate                                 : 1 509 Kbps
Channel(s)                               : 6 channels
Channel positions                        : Front: L C R, Side: L R, LFE
Sampling rate                            : 48.0 KHz
Frame rate                               : 93.750 fps (512 spf)
Bit depth                                : 16 bits
Compression mode                         : Lossy
Stream size                              : 1.04 GiB (15%)
Language                                 : English
Default                                  : No
Forced                                   : No






1 个附件 售价 大小 下载 时间

Private.Peaceful.2012.1080p.BluRay.x264.DTS-FGT.torrent 0 金币 69.74K 1577 次 2016-2-22

#1楼
发帖时间:2016-02-22 21:51:36   |   回复数:3
blue23
隐世仙人♂
感谢楼主分享
2016-2-22 #2楼
liyouchai
隐世仙人♂
谢谢楼主分享资源
2016-2-23 #3楼
ftgchjg
一派掌门
感谢楼主分享。
2016-2-23 #4楼
游客组