HELLO小虾
版主

[2011] [欧美] [惊悚] [BD-3D] 夺命深渊/3D惊天洞地/洞穴[3D左右]2011.1080p.3D.BluRay.Half-SBS.x264.DTS-HD.MA.5.1-RARBG 15.46

-->

Sanctum.2011.1080p.3D.BluRay.Half-SBS.x264.DTS-HD.MA.5.1-RARBG

◎译  名 夺命深渊/3D惊天洞地(台)/潜行深渊(港)/洞穴/圣地

◎片  名 Sanctum

◎年  代 2011

◎国  家 美国/澳大利亚

◎类  别 剧情/动作/惊悚/冒险

◎语  言 英语

◎上映日期 2011-02-04(美国)/2011-09-09(中国大陆)

◎IMDb评分  5.9/10 from 44,818 users

◎IMDb链接  http://www.imdb.com/title/tt0881320/

◎豆瓣评分 7.3/10 from 25,445 users

◎豆瓣链接 http://movie.douban.com/subject/3319741/

◎片  长 108分钟

◎导  演 阿里斯特·格里尔森 Alister Grierson

◎主  演 瑞斯·维克菲尔德 Rhys Wakefield

      艾莉森·克拉特切莉 Allison Cratchley

      Alice Parkinson

      Dan Wyllie

      Christopher Baker

      理查德·劳斯伯格 Richard Roxburgh

      艾恩·格拉法德 Ioan Gruffudd


◎简  介


  在巴布亚新几内亚某地一个人迹罕见的原始丛林腹地,有一个号称洞穴之母的巨洞——伊萨·阿拉。腰缠万贯的探险家卡尔(Ioan Gruffudd 饰)一掷千金,雇用拥有丰富洞穴探险经验的弗兰克(Richard Roxburgh 饰)及其团队对这里进行勘查。转眼之间几个月过去,伊萨·阿拉的勘探虽然颇见成效,但进度仍显缓慢。与此同时,强烈的热带风暴即将到来,洞穴探险迫在眉睫。卡尔为此和弗兰克发生争吵,而后者孤注一掷,和早已身心疲惫的搭档茱德(Allison Cratchley 饰)潜入水中,挑战有着“魔鬼之限”之称的凶险通道。另一方面,卡尔的女友维多莉亚和弗兰克的儿子乔希也到洞中探险。殊不知灭顶之灾正在逼近……

  本片根据Andrew Wight在西澳大利亚探洞时的真实经历改编,采用《阿凡达》的3D摄像机拍摄。


  • Video

  • ID                                       : 1

  • Format                                   : AVC

  • Format/Info                              : Advanced Video Codec

  • Format profile                           : [email protected]

  • Format settings, CABAC                   : Yes

  • Format settings, ReFrames                : 2 frames

  • Format settings, GOP                     : M=3, N=24

  • Codec ID                                 : V_MPEG4/ISO/AVC

  • Duration                                 : 1h 48mn

  • Nominal bit rate                         : 15.5 Mbps

  • Width                                    : 1 920 pixels

  • Height                                   : 1 080 pixels

  • Display aspect ratio                     : 16:9

  • Frame rate mode                          : Constant

  • Frame rate                               : 23.976 fps

  • Color space                              : YUV

  • Chroma subsampling                       : 4:2:0

  • Bit depth                                : 8 bits

  • Scan type                                : Progressive

  • Bits/(Pixel*Frame)                       : 0.312

  • Title                                    : Sanctum.2011.1080p.3D.BluRay.Half-SBS.x264.DTS-HD.MA.5.1-RARBG

  • Writing library                          : x264 core 142

  • Encoding settings                        : cabac=1 / ref=1 / deblock=1:-1:-1 / analyse=0x3:0 / me=hex / subme=5 / psy=0 / mixed_ref=0 / me_range=16 / chroma_me=1 / trellis=0 / 8x8dct=1 / cqm=0 / deadzone=21,11 / fast_pskip=1 / chroma_qp_offset=0 / threads=8 / lookahead_threads=2 / sliced_threads=0 / nr=0 / decimate=1 / interlaced=0 / bluray_compat=0 / constrained_intra=0 / bframes=2 / b_pyramid=0 / b_adapt=1 / b_bias=0 / direct=1 / weightb=1 / open_gop=0 / weightp=0 / keyint=24 / keyint_min=13 / scenecut=40 / intra_refresh=0 / rc=abr / mbtree=0 / bitrate=15500 / ratetol=1.0 / qcomp=0.60 / qpmin=0 / qpmax=69 / qpstep=4 / ip_ratio=1.40 / pb_ratio=1.30 / aq=1:1.00

  • Default                                  : Yes

  • Forced                                   : No

  • Color range                              : Limited

  • Color primaries                          : BT.709

  • Transfer characteristics                 : BT.709

  • Matrix coefficients                      : BT.709


  • Audio #1

  • ID                                       : 2

  • Format                                   : DTS

  • Format/Info                              : Digital Theater Systems

  • Format profile                           : MA / Core

  • Mode                                     : 16

  • Format settings, Endianness              : Big

  • Codec ID                                 : A_DTS

  • Duration                                 : 1h 48mn

  • Bit rate mode                            : Variable

  • Bit rate                                 : Unknown / 1 509 Kbps

  • Channel(s)                               : 6 channels

  • Channel positions                        : Front: L C R, Side: L R, LFE

  • Sampling rate                            : 48.0 KHz

  • Bit depth                                : 24 bits

  • Compression mode                         : Lossless / Lossy

  • Title                                    : Sanctum.2011.1080p.3D.BluRay.Half-SBS.x264.DTS-HD.MA.5.1-RARBG

  • Language                                 : English

  • Default                                  : Yes

  • Forced                                   : No


  • Audio #2

  • ID                                       : 3

  • Format                                   : AC-3

  • Format/Info                              : Audio Coding 3

  • Format profile                           : Dolby Digital

  • Mode extension                           : CM (complete main)

  • Format settings, Endianness              : Big

  • Codec ID                                 : A_AC3

  • Duration                                 : 1h 48mn

  • Bit rate mode                            : Constant

  • Bit rate                                 : 192 Kbps

  • Channel(s)                               : 2 channels

  • Channel positions                        : Front: L R

  • Sampling rate                            : 48.0 KHz

  • Compression mode                         : Lossy

  • Stream size                              : 149 MiB (1%)

  • Title                                    : Sanctum.2011.1080p.3D.BluRay.Half-SBS.x264.DTS-HD.MA.5.1-RARBG

  • Language                                 : English

  • Default                                  : No

  • Forced                                   : No


  • Audio #3

  • ID                                       : 4

  • Format                                   : DTS

  • Format/Info                              : Digital Theater Systems

  • Mode                                     : 16

  • Format settings, Endianness              : Big

  • Codec ID                                 : A_DTS

  • Duration                                 : 1h 48mn

  • Bit rate mode                            : Constant

  • Bit rate                                 : 1 509 Kbps

  • Channel(s)                               : 6 channels

  • Channel positions                        : Front: L C R, Side: L R, LFE

  • Sampling rate                            : 48.0 KHz

  • Bit depth                                : 24 bits

  • Compression mode                         : Lossy

  • Stream size                              : 1.15 GiB (7%)

  • Title                                    : Sanctum.2011.1080p.3D.BluRay.Half-SBS.x264.DTS-HD.MA.5.1-RARBG

  • Language                                 : English

  • Default                                  : No

  • Forced                                   : No


  • Text

  • ID                                       : 5

  • Format                                   : PGS

  • Muxing mode                              : zlib

  • Codec ID                                 : S_HDMV/PGS

  • Codec ID/Info                            : Picture based subtitle format used on BDs/HD-DVDs

  • Language                                 : English

  • Default                                  : No

  • Forced                                   : No


  • Menu

  • 00:00:00.000                             : en01)00:00:00:000

  • 00:04:57.046                             : en02)00:04:57:046

  • 00:08:42.313                             : en03)00:08:42:313

  • 00:14:17.231                             : en04)00:14:17:231

  • 00:20:40.989                             : en05)00:20:40:989

  • 00:27:02.746                             : en06)00:27:02:746

  • 00:30:57.355                             : en07)00:30:57:355

  • 00:33:50.361                             : en000:33:50:361

  • 00:44:17.237                             : en09)00:44:17:237

  • 00:48:52.763                             : en10)00:48:52:763

  • 00:54:57.919                             : en11)00:54:57:919

  • 00:59:05.250                             : en12)00:59:05:250

  • 01:07:03.394                             : en13)01:07:03:394

  • 01:14:24.585                             : en14)01:14:24:585

  • 01:19:58.001                             : en15)01:19:58:001

  • 01:24:36.738                             : en16)01:24:36:738

  • 01:28:26.134                             : en17)01:28:26:134

  • 01:32:08.064                             : en101:32:08:064

  • 01:39:22.790                             : en19)01:39:22:790

  • 01:43:24.823                             : en20)01:43:24:823





1 个附件 售价 大小 下载 时间

Sanctum.2011.1080p.3D.BluRay.Half-SBS.x264.DTS-HD.MA.5.1-RARBG.torrent 0 金币 78.01K 8540 次 2015-9-16

#1楼
发帖时间:2015-09-16 10:14:56   |   回复数:5
cg07218
武林盟主
感谢楼主分享!支持一下!
2015-9-16 #2楼
龙炎辉
一代宗师
感谢楼主分享!支持一下!
2015-9-16 #3楼
lqs10168
一代宗师
感谢楼主分享!支持一下!
2015-9-16 #4楼
blue23
隐世仙人♂
感谢楼主分享
2015-9-16 #5楼
liyouchai
隐世仙人♂
谢谢楼主分享资源
2015-9-17 #6楼
游客组