HELLO小虾
版主

[2011] [欧美] [动作] [BD-3D] 雷神[3D左右]Thor.2011.1080p.3D.BluRay.Half-SBS.x264.DTS-HD.MA.7.1-RARBG 19.57GB

-->

Thor.2011.1080p.3D.BluRay.Half-SBS.x264.DTS-HD.MA.7.1-RARBG

◎译  名 雷神/雷神奇侠(港)/雷神索尔(台)/雷神托尔/雷神归来/雷神之锤/托尔

◎片  名 Thor

◎年  代 2011

◎国  家 美国

◎类  别 动作/冒险/剧情/奇幻

◎语  言 英语

◎上映日期 2011-05-06(美国)/2011-05-08(中国大陆)

◎IMDb评分  7.0/10 from 457,380 users

◎IMDb链接  http://www.imdb.com/title/tt0800369/

◎豆瓣评分 6.6/10 from 97,496 users

◎豆瓣链接 http://movie.douban.com/subject/1866471/

◎片  长 114分钟

◎导  演 肯尼思·布拉纳 Kenneth Branagh

◎主  演 克里斯·海姆斯沃斯 Chris Hemsworth

      汤姆·希德勒斯顿 Tom Hiddleston

      娜塔丽·波曼 Natalie Portman

      安东尼·霍普金斯 Anthony Hopkins

      斯特兰·斯卡斯加德 Stellan Skarsgård

      凯特·戴琳斯 Kat Dennings

      克拉克·格雷格 Clark Gregg

      伊德瑞斯·艾尔巴 Idris Elba

      科鲁姆·费奥瑞 Colm Feore

      雷·史蒂文森 Ray Stevenson

      浅野忠信 Tadanobu Asano

      杰米·亚历山大 Jaimie Alexander

      蕾妮·罗素 Rene Russo

      艾德里安娜·巴拉扎 Adriana Barraza

      杰瑞米·雷纳 Jeremy Renner

      乔舒华·达拉斯 Joshua Dallas


◎简  介


  勇敢善战雷神托尔(克里斯•海姆斯沃斯 Chris Hemsworth 饰),作为永恒境界阿斯加德的王位继承人,受人敬仰。然而由于一次鲁莽的行动,险些挑起一场古老的战争,因此被父亲天神奥丁(安东尼•霍普金斯 Anthony Hopkins 饰)流放到人间。托尔在人间认识了 美丽的女科学家珍•福斯特(娜塔莉•波特曼 Natalie Portman 饰)和她的工作伙伴,在他们的帮助下,托尔找到了和自己一起被贬的雷神之锤,但此时的雷神之锤并不属于他。此间,托尔的弟弟洛基为了成为阿斯加德的王,居然联合寒冰巨人,企图在永恒境界掀起一场腥风血雨。为了维持永恒之界的法度,托尔的四位朋友也来到人间,他们决定带托尔返回永恒之境。此时,为了阻止雷神重归永恒境界,洛基派出巨人杀死托尔。丧失能力和法战的托尔为了保护无辜的人类与自己的朋友,献出了自己的生命。托尔的死打破了天神的的咒语,托尔复活并重获雷神之力战胜巨人。此时,天神生命危在旦夕,托尔必须与自己的朋友们重返永恒之界,维护那里的法度……

  本片改编自传奇漫画家搭档斯坦•李(Stan Lee)和杰克•科比(Jack Kirby)于1962年推出《雷神》连载漫画。


◎获奖情况


  第21届MTV电影奖 (2012)

  MTV电影奖 最佳英雄形象(提名) 克里斯·海姆斯沃斯


  第13届美国青少年选择奖 (2011)

  Choice Movie Breakout: Male(提名) 克里斯·海姆斯沃斯


  • Video

  • ID                                       : 1

  • Format                                   : AVC

  • Format/Info                              : Advanced Video Codec

  • Format profile                           : [email protected]

  • Format settings, CABAC                   : Yes

  • Format settings, ReFrames                : 2 frames

  • Codec ID                                 : V_MPEG4/ISO/AVC

  • Duration                                 : 1h 54mn

  • Nominal bit rate                         : 15.5 Mbps

  • Width                                    : 1 920 pixels

  • Height                                   : 1 080 pixels

  • Display aspect ratio                     : 16:9

  • Frame rate mode                          : Constant

  • Frame rate                               : 23.976 fps

  • Color space                              : YUV

  • Chroma subsampling                       : 4:2:0

  • Bit depth                                : 8 bits

  • Scan type                                : Progressive

  • Bits/(Pixel*Frame)                       : 0.312

  • Title                                    : Thor.2011.1080p.3D.BluRay.Half-SBS.x264.DTS-HD.MA.7.1-RARBG

  • Writing library                          : x264 core 142

  • Encoding settings                        : cabac=1 / ref=1 / deblock=1:-1:-1 / analyse=0x3:0 / me=hex / subme=5 / psy=0 / mixed_ref=0 / me_range=16 / chroma_me=1 / trellis=0 / 8x8dct=1 / cqm=0 / deadzone=21,11 / fast_pskip=1 / chroma_qp_offset=0 / threads=8 / lookahead_threads=2 / sliced_threads=0 / nr=0 / decimate=1 / interlaced=0 / bluray_compat=0 / constrained_intra=0 / bframes=2 / b_pyramid=0 / b_adapt=1 / b_bias=0 / direct=1 / weightb=1 / open_gop=0 / weightp=0 / keyint=24 / keyint_min=13 / scenecut=40 / intra_refresh=0 / rc=abr / mbtree=0 / bitrate=15500 / ratetol=1.0 / qcomp=0.60 / qpmin=0 / qpmax=69 / qpstep=4 / ip_ratio=1.40 / pb_ratio=1.30 / aq=1:1.00

  • Language                                 : English

  • Default                                  : Yes

  • Forced                                   : No

  • Color range                              : Limited

  • Color primaries                          : BT.709

  • Transfer characteristics                 : BT.709

  • Matrix coefficients                      : BT.709


  • Audio #1

  • ID                                       : 2

  • Format                                   : DTS

  • Format/Info                              : Digital Theater Systems

  • Format profile                           : MA / Core

  • Mode                                     : 16

  • Format settings, Endianness              : Big

  • Codec ID                                 : A_DTS

  • Duration                                 : 1h 54mn

  • Bit rate mode                            : Variable

  • Bit rate                                 : Unknown / 1 509 Kbps

  • Channel(s)                               : 8 channels / 6 channels

  • Channel positions                        : Front: L C R, Side: L R, Back: L R, LFE / Front: L C R, Side: L R, LFE

  • Sampling rate                            : 48.0 KHz

  • Bit depth                                : 24 bits

  • Compression mode                         : Lossless / Lossy

  • Title                                    : Thor.2011.1080p.3D.BluRay.Half-SBS.x264.DTS-HD.MA.7.1-RARBG

  • Language                                 : English

  • Default                                  : Yes

  • Forced                                   : No


  • Audio #2

  • ID                                       : 3

  • Format                                   : DTS

  • Format/Info                              : Digital Theater Systems

  • Format profile                           : ES

  • Mode                                     : 16

  • Format settings, Endianness              : Big

  • Codec ID                                 : A_DTS

  • Duration                                 : 1h 54mn

  • Bit rate mode                            : Constant

  • Bit rate                                 : 1 509 Kbps

  • Channel(s)                               : 6 channels

  • Channel positions                        : Front: L C R, Side: L R, LFE

  • Sampling rate                            : 48.0 KHz

  • Bit depth                                : 24 bits

  • Compression mode                         : Lossy

  • Stream size                              : 1.21 GiB (6%)

  • Title                                    : Thor.2011.1080p.3D.BluRay.Half-SBS.x264.DTS-HD.MA.7.1-RARBG

  • Language                                 : English

  • Default                                  : No

  • Forced                                   : No


  • Audio #3

  • ID                                       : 4

  • Format                                   : AC-3

  • Format/Info                              : Audio Coding 3

  • Mode extension                           : CM (complete main)

  • Format settings, Endianness              : Big

  • Codec ID                                 : A_AC3

  • Duration                                 : 1h 54mn

  • Bit rate mode                            : Constant

  • Bit rate                                 : 640 Kbps

  • Channel(s)                               : 6 channels

  • Channel positions                        : Front: L C R, Side: L R, LFE

  • Sampling rate                            : 48.0 KHz

  • Bit depth                                : 16 bits

  • Compression mode                         : Lossy

  • Stream size                              : 526 MiB (3%)

  • Title                                    : Thor.2011.1080p.3D.BluRay.Half-SBS.x264.DTS-HD.MA.7.1-RARBG

  • Language                                 : Czech

  • Default                                  : No

  • Forced                                   : No


  • Audio #4

  • ID                                       : 5

  • Format                                   : AC-3

  • Format/Info                              : Audio Coding 3

  • Mode extension                           : CM (complete main)

  • Format settings, Endianness              : Big

  • Codec ID                                 : A_AC3

  • Duration                                 : 1h 54mn

  • Bit rate mode                            : Constant

  • Bit rate                                 : 640 Kbps

  • Channel(s)                               : 6 channels

  • Channel positions                        : Front: L C R, Side: L R, LFE

  • Sampling rate                            : 48.0 KHz

  • Bit depth                                : 16 bits

  • Compression mode                         : Lossy

  • Stream size                              : 526 MiB (3%)

  • Title                                    : Thor.2011.1080p.3D.BluRay.Half-SBS.x264.DTS-HD.MA.7.1-RARBG

  • Language                                 : Polish

  • Default                                  : No

  • Forced                                   : No


  • Audio #5

  • ID                                       : 6

  • Format                                   : AC-3

  • Format/Info                              : Audio Coding 3

  • Mode extension                           : CM (complete main)

  • Format settings, Endianness              : Big

  • Codec ID                                 : A_AC3

  • Duration                                 : 1h 54mn

  • Bit rate mode                            : Constant

  • Bit rate                                 : 640 Kbps

  • Channel(s)                               : 6 channels

  • Channel positions                        : Front: L C R, Side: L R, LFE

  • Sampling rate                            : 48.0 KHz

  • Bit depth                                : 16 bits

  • Compression mode                         : Lossy

  • Stream size                              : 526 MiB (3%)

  • Title                                    : Thor.2011.1080p.3D.BluRay.Half-SBS.x264.DTS-HD.MA.7.1-RARBG

  • Language                                 : Russian

  • Default                                  : No

  • Forced                                   : No


  • Audio #6

  • ID                                       : 7

  • Format                                   : AC-3

  • Format/Info                              : Audio Coding 3

  • Mode extension                           : CM (complete main)

  • Format settings, Endianness              : Big

  • Codec ID                                 : A_AC3

  • Duration                                 : 1h 54mn

  • Bit rate mode                            : Constant

  • Bit rate                                 : 640 Kbps

  • Channel(s)                               : 6 channels

  • Channel positions                        : Front: L C R, Side: L R, LFE

  • Sampling rate                            : 48.0 KHz

  • Bit depth                                : 16 bits

  • Compression mode                         : Lossy

  • Stream size                              : 526 MiB (3%)

  • Title                                    : Thor.2011.1080p.3D.BluRay.Half-SBS.x264.DTS-HD.MA.7.1-RARBG

  • Language                                 : Thai

  • Default                                  : No

  • Forced                                   : No


  • Text #1

  • ID                                       : 8

  • Format                                   : PGS

  • Muxing mode                              : zlib

  • Codec ID                                 : S_HDMV/PGS

  • Codec ID/Info                            : Picture based subtitle format used on BDs/HD-DVDs

  • Language                                 : Czech

  • Default                                  : No

  • Forced                                   : No


  • Text #2

  • ID                                       : 9

  • Format                                   : PGS

  • Muxing mode                              : zlib

  • Codec ID                                 : S_HDMV/PGS

  • Codec ID/Info                            : Picture based subtitle format used on BDs/HD-DVDs

  • Language                                 : English

  • Default                                  : No

  • Forced                                   : No


  • Text #3

  • ID                                       : 10

  • Format                                   : PGS

  • Muxing mode                              : zlib

  • Codec ID                                 : S_HDMV/PGS

  • Codec ID/Info                            : Picture based subtitle format used on BDs/HD-DVDs

  • Language                                 : Polish

  • Default                                  : No

  • Forced                                   : No


  • Text #4

  • ID                                       : 11

  • Format                                   : PGS

  • Muxing mode                              : zlib

  • Codec ID                                 : S_HDMV/PGS

  • Codec ID/Info                            : Picture based subtitle format used on BDs/HD-DVDs

  • Language                                 : Russian

  • Default                                  : No

  • Forced                                   : No


  • Text #5

  • ID                                       : 12

  • Format                                   : PGS

  • Muxing mode                              : zlib

  • Codec ID                                 : S_HDMV/PGS

  • Codec ID/Info                            : Picture based subtitle format used on BDs/HD-DVDs

  • Language                                 : Thai

  • Default                                  : No

  • Forced                                   : No


  • Menu

  • 00:00:00.000                             : en01)00:00:00:000

  • 00:10:38.137                             : en02)00:10:38:137

  • 00:17:33.135                             : en03)00:17:33:135

  • 00:26:02.602                             : en04)00:26:02:602

  • 00:32:28.196                             : en05)00:32:28:196

  • 00:37:28.412                             : en06)00:37:28:412

  • 00:42:14.198                             : en07)00:42:14:198

  • 00:52:10.377                             : en000:52:10:377

  • 01:01:24.972                             : en09)01:01:24:972

  • 01:08:45.538                             : en10)01:08:45:538

  • 01:15:39.159                             : en11)01:15:39:159

  • 01:21:19.249                             : en12)01:21:19:249

  • 01:30:35.346                             : en13)01:30:35:346

  • 01:40:58.177                             : en14)01:40:58:177

  • 01:45:13.724                             : en15)01:45:13:724

  • 01:53:06.196                             : en16)01:53:06:196

  • 01:54:50.425                             : en17)01:54:50:425






1 个附件 售价 大小 下载 时间

Thor.2011.1080p.3D.BluRay.Half-SBS.x264.DTS-HD.MA.7.1-RARBG.torrent 0 金币 98.55K 3546 次 2015-7-4

#1楼
发帖时间:2015-07-04 17:50:50   |   回复数:3
cg07218
武林盟主
感谢楼主分享!支持一下!
2015-7-4 #2楼
liyouchai
隐世仙人♂
谢谢楼主分享资源
2015-7-4 #3楼
blue23
隐世仙人♂
感谢楼主分享
2015-7-4 #4楼
游客组