HELLO小虾
版主

[2014] [欧美] [喜剧] [WEB-720P] 性本恶/本性难移/固有缺陷 Inherent.Vice.2014.720p.WEB-DL.DD5.1.H264-RARBG 4.55GB

-->

Inherent.Vice.2014.720p.WEB-DL.DD5.1.H264-RARBG

◎译  名 性本恶/本性难移/固有缺陷

◎片  名 Inherent Vice

◎年  代 2014

◎国  家 美国 

◎类  别 喜剧/犯罪/剧情 

◎语  言 英语 

◎字  幕 N/A

◎IMDB评分 7.1/10 from 15,107 users  

◎IMDB链接 http://www.imdb.com/title/tt1791528/

◎片  长 02:28:40

◎导  演 保罗·托马斯·安德森 Paul Thomas Anderson

◎主  演 华金·菲尼克斯 Joaquin Phoenix ...Doc Sportello

      乔什·布洛林 Josh Brolin ...Bigfoot Bjornsen

      欧文·威尔逊 Owen Wilson ...Coy Harlingen 

      瑞茜·威瑟斯彭 Reese Witherspoon ...Penny

      吉娜·马隆 Jena Malone ...Hope Harlingen 

      萨莎·皮特丝 Sasha Pieterse ...Japonica Fenway

      本尼西奥·德尔·托罗 Benicio Del Toro ...Sauncho Smilax     

      迈克尔·威廉姆斯 Michael K. Williams ...Tariq Khalil 

      埃里克·罗伯茨 Eric Roberts ...Mickey Wolfmann

      玛娅·鲁道夫 Maya Rudolph ...Petunia Leeway

      Will Bethel

      马丁·肖特 Martin Short ...Dr. Blatnoyd     

      吉丽安·贝尔 Jillian Bell

      山姆·贾格 Sam Jaeger ...Agent Flatweed

      Anders Holm

      凯瑟琳·沃特斯顿 Katherine Waterston ...Shasta Fay Hepworth

      马丁·唐文 Martin Donovan ...Crocker Fenway

      Joanna Newsom 

      Timothy Simons ...Agent Borderline

      Serena Scott Thomas ...Sloane Wolfmann

      Yvette Yates ...Luz




◎简  介 


  根据同名小说改编,故事有一个类似钱德勒侦探小说的外壳,洛杉矶私家侦探多克(杰昆·菲尼克斯饰)与前女友莎斯塔不期而遇,并从她那听说了一个无从佐证的故事,一桩离奇绑架案。多克鬼使神差地撞进了莎斯塔的故事,而且愈卷愈深,冲浪手、皮条客、贩毒者、摇滚乐手、犯了命案的高利贷者,各色人等若隐若现。


花絮


.导演安德森介绍,华金·菲尼克斯与瑞茜·威瑟斯彭相处非常融洽,两人似乎有一套别人插不进入的语言,安德森不得不总是提醒他们“开拍了,别聊天了!”二人此前曾合作过影片《与歌同行》。


.小罗伯特·唐尼原定出演主角,但后来被菲尼克斯替换。这是安德森继《大师》之后再度与菲尼克斯合作。后来,唐尼曾表示,他退出这部影片是由于安德森认为他年纪过大,而不是由于档期的原因。


.影片是美国后现代小说大家托马斯·品钦的作品第一次被搬上大银幕。据说,品钦本人表达了对安德森的改编剧本的首肯。


.瑞茜·威瑟斯彭的所有戏份在三天内拍摄完毕。导演与菲尼克斯都希望改动剧本,把她的角色戏份增多一些。然而,威瑟斯彭劝阻了他们。


.影片由华纳兄弟公司发行,这是托马斯自从2002年《疯狂愚蠢的爱》之后的第一部由主流大制片厂发行的影片。


.查理兹·塞隆曾是扮演片中Shasta一角的人选。这个角色后来由凯瑟琳·沃特斯顿出演。


.据乔什·布洛林爆料,小说原著作者托马斯·品钦在片中客串了一个角色。


.小说原著标题“inherent vice”是借用自海事保险上的术语,指货物本身所固有的容易引起损环的特性,即“固有缺陷”。因为货物内在缺陷造成的损失,除非双方订有特别约定,否则保险人不予负责。


获奖记录


奥斯卡金像奖(2015;第87届) 

提名

·奥斯卡奖-最佳改编剧本保罗·托马斯·安德森 Paul Thomas Anderson  

·奥斯卡奖-最佳服装设计马克·布里吉斯 Mark Bridges  


美国金球奖(2015;第72届) 

提名

·电影类-音乐喜剧类最佳男主角华金·菲尼克斯 Joaquin Phoenix



  • Video

  • ID                                       : 1

  • Format                                   : AVC

  • Format/Info                              : Advanced Video Codec

  • Format profile                           : [email protected]

  • Format settings, CABAC                   : No

  • Format settings, ReFrames                : 2 frames

  • Codec ID                                 : V_MPEG4/ISO/AVC

  • Duration                                 : 2h 28mn

  • Bit rate                                 : 3 907 Kbps

  • Width                                    : 1 280 pixels

  • Height                                   : 690 pixels

  • Display aspect ratio                     : 1.85:1

  • Frame rate mode                          : Constant

  • Frame rate                               : 23.976 fps

  • Color space                              : YUV

  • Chroma subsampling                       : 4:2:0

  • Bit depth                                : 8 bits

  • Scan type                                : Progressive

  • Bits/(Pixel*Frame)                       : 0.184

  • Stream size                              : 4.06 GiB (89%)

  • Title                                    : Inherent.Vice.2014.720p.WEB-DL.DD5.1.H264-RARBG

  • Language                                 : English

  • Default                                  : Yes

  • Forced                                   : No

  • Color primaries                          : BT.709

  • Transfer characteristics                 : BT.709

  • Matrix coefficients                      : BT.709

  • Color range                              : Limited


  • Audio

  • ID                                       : 2

  • Format                                   : AC-3

  • Format/Info                              : Audio Coding 3

  • Mode extension                           : CM (complete main)

  • Format settings, Endianness              : Big

  • Codec ID                                 : A_AC3

  • Duration                                 : 2h 28mn

  • Bit rate mode                            : Constant

  • Bit rate                                 : 384 Kbps

  • Channel(s)                               : 6 channels

  • Channel positions                        : Front: L C R, Side: L R, LFE

  • Sampling rate                            : 48.0 KHz

  • Bit depth                                : 16 bits

  • Compression mode                         : Lossy

  • Stream size                              : 408 MiB (9%)

  • Title                                    : Inherent.Vice.2014.720p.WEB-DL.DD5.1.H264-RARBG

  • Language                                 : English

  • Default                                  : Yes

  • Forced                                   : No


  • Text

  • ID                                       : 3

  • Format                                   : UTF-8

  • Codec ID                                 : S_TEXT/UTF8

  • Codec ID/Info                            : UTF-8 Plain Text

  • Language                                 : English

  • Default                                  : Yes

  • Forced                                   : No


  • Menu

  • 00:00:00.000                             : en:1

  • 00:15:58.000                             : en:2

  • 00:26:44.000                             : en:3

  • 00:42:52.000                             : en:4

  • 00:52:25.000                             : en:5

  • 01:12:07.000                             : en:6

  • 01:30:29.000                             : en:7

  • 01:39:07.000                             : en:8

  • 01:51:54.000                             : en:9

  • 02:11:16.000                             : en:10

  • 02:21:48.000                             : en:11







1 个附件 售价 大小 下载 时间

Inherent.Vice.2014.720p.WEB-DL.DD5.1.H264-RARBG.torrent 0 金币 12.25K 1166 次 2015-2-18

#1楼
发帖时间:2015-02-18 18:27:03   |   回复数:3
blue23
隐世仙人♂
感谢楼主分享
2015-2-18 #2楼
lys518
武林高手
感谢分享,羊年大吉
2015-2-19 #3楼
liyouchai
隐世仙人♂
谢谢楼主分享资源
2015-2-27 #4楼
游客组