HELLO小虾
版主

[2015] [日本] [动画] [HDTV/HDrip] EVA:绝密冲击 Evangelion.Another.Impact.2015.SHORT.x264.AAC.2.0-FGT 119MB

-->

Evangelion.Another.Impact.2015.SHORT.x264.AAC.2.0-FGT

导演: 荒牧伸志

编剧: 荒牧伸志

主演: 山寺宏一 / 林原惠美

类型: 动作 / 科幻 / 动画 / 短片

官方网站: http://animatorexpo.com/evangelionanotherimpact/

制片国家/地区: 日本

语言: 日语 / 英语

上映日期: 2015-02-06

片长: 5:35

EVA:绝密冲击的剧情简介  ·  ·  ·  ·  ·  ·

  在别的地方,别的时候,进行着决战兵器的启动实验。秘密进行开发与实验的「Another No.=无号机」,突然不受人的控制,开始了暴走——。『Another No. = 无号机』是为了什么而制造的呢?在「别」的世界启动的EVA的暴走与咆哮的故事……


  • ID                                       : 1

  • Format                                   : AVC

  • Format/Info                              : Advanced Video Codec

  • Format profile                           : [email protected]

  • Format settings, CABAC                   : Yes

  • Format settings, ReFrames                : 4 frames

  • Codec ID                                 : avc1

  • Codec ID/Info                            : Advanced Video Coding

  • Duration                                 : 6mn 23s

  • Bit rate                                 : 2 486 Kbps

  • Width                                    : 1 280 pixels

  • Height                                   : 720 pixels

  • Display aspect ratio                     : 16:9

  • Frame rate mode                          : Constant

  • Frame rate                               : 24.000 fps

  • Color space                              : YUV

  • Chroma subsampling                       : 4:2:0

  • Bit depth                                : 8 bits

  • Scan type                                : Progressive

  • Bits/(Pixel*Frame)                       : 0.112

  • Stream size                              : 113 MiB (95%)

  • Writing library                          : x264 core 142 r2495 6a301b6

  • Encoding settings                        : cabac=1 / ref=4 / deblock=1:1:1 / analyse=0x3:0x133 / me=umh / subme=10 / psy=1 / psy_rd=0.40:0.00 / mixed_ref=1 / me_range=24 / chroma_me=1 / trellis=2 / 8x8dct=1 / cqm=0 / deadzone=21,11 / fast_pskip=1 / chroma_qp_offset=-2 / threads=12 / lookahead_threads=3 / sliced_threads=0 / nr=0 / decimate=1 / interlaced=0 / bluray_compat=0 / constrained_intra=0 / bframes=10 / b_pyramid=2 / b_adapt=2 / b_bias=0 / direct=3 / weightb=1 / open_gop=0 / weightp=2 / keyint=250 / keyint_min=24 / scenecut=40 / intra_refresh=0 / rc_lookahead=60 / rc=crf / mbtree=1 / crf=18.0 / qcomp=0.60 / qpmin=0 / qpmax=69 / qpstep=4 / ip_ratio=1.40 / aq=1:0.60


  • Audio

  • ID                                       : 2

  • Format                                   : AAC

  • Format/Info                              : Advanced Audio Codec

  • Format profile                           : LC

  • Codec ID                                 : 40

  • Duration                                 : 6mn 23s

  • Bit rate mode                            : Constant

  • Bit rate                                 : 128 Kbps

  • Channel(s)                               : 2 channels

  • Channel positions                        : Front: L R

  • Sampling rate                            : 48.0 KHz

  • Compression mode                         : Lossy

  • Stream size                              : 5.85 MiB (5%)

  • Language                                 : English






1 个附件 售价 大小 下载 时间

Evangelion.Another.Impact.2015.SHORT.x264.AAC.2.0-FGT.torrent 0 金币 19.49K 11278 次 2015-2-18

#1楼
发帖时间:2015-02-18 17:04:17   |   回复数:10
实现四化
小有名气
EVA的动画版?又拿出来骗钱的?网游国服早就完蛋了吧?
2015-2-18 #2楼
凌晨五点
武林高手
-o- 怎么变成骗钱的了
2015-2-18 #3楼
blue23
隐世仙人♂
感谢楼主分享 3D的看看
2015-2-18 #4楼
iitomita
小有名气
EVA还有网游?
2015-2-19 #5楼
唔系好人
武林高手
此EVA非彼EVA
2015-2-19 #6楼
不朽若梦
武林高手
一楼的真是不懂不要装懂。
2015-2-19 #7楼
武穆魂
江湖小虾
一楼说的是EVE吧?
2015-2-22 #8楼
liyouchai
隐世仙人♂
谢谢楼主分享资源
2015-2-27 #9楼
hmy0926
江湖小虾
真人版EVA
2015-3-6 #10楼
geminiwdl
小有名气
EVA真的是不错的动画片,看看电影版如何,谢谢楼主。。
2015-4-11 #11楼
游客组